<?xml version="1.0" standalone="no"?>
<!DOCTYPE svg PUBLIC "-//W3C//DTD SVG 1.1//EN" "http://www.w3.org/Graphics/SVG/1.1/DTD/svg11.dtd" >
<svg>
<metadata>
Created by FontForge 20090622 at Tue Dec  5 04:50:05 2017
 By ffonts
Tox Typewriter &#194;&#169;junkohanhero 2016. All Rights Reserved
</metadata>
<defs>
<font id="ToxTypewriter" horiz-adv-x="1207" >
  <font-face 
    font-family="Tox Typewriter"
    font-weight="400"
    font-stretch="normal"
    units-per-em="2048"
    panose-1="2 0 5 0 0 0 0 0 0 0"
    ascent="1638"
    descent="-410"
    x-height="921"
    cap-height="1289"
    bbox="-161 -385 2816 1722"
    underline-thickness="150"
    underline-position="-142"
    unicode-range="U+001D-U+2248"
  />
<missing-glyph horiz-adv-x="501" 
d="M97 894q3 0 26 -2h16h61q17 -5 17 -26q3 -2 3 -20q-25 -6 -14 -22q24 -55 38 -55h2q26 9 26 24q8 10 22 18l2 13v3q0 15 -24 36v5q17 24 31 24q24 -2 42 -2h15h24h6q21 -2 27 -2l13 2q13 -5 13 -27v-2q0 -17 -15 -28h-7q-29 7 -31 7h-2q-7 0 -35 -14q0 -2 -2 -2h2
q0 -4 -4 -4q0 2 -2 2l2 -4q-8 -26 -24 -35q-7 -5 -14 -27q-16 0 -28 -39q1 -13 39 -57q5 0 5 -9q-2 0 -2 -2h2q0 2 2 2q0 -3 16 -15q4 -15 45 -49q2 0 2 -4q3 2 33 4q25 -5 40 -30q2 -4 2 -9q-4 -13 -13 -13q-29 -9 -37 -9h-5q-13 0 -30 1h-7q-3 0 -24 -1h-20q-16 2 -26 0
q-35 6 -35 31q9 19 24 28q-9 60 -37 60q0 4 -13 4q-5 0 -33 -28q-11 -6 -11 -18q-24 -24 18 -28q18 -15 8 -39q-6 -11 -9 -11q0 2 -2 2q0 -2 -24 -1q-16 6 -24 -3v-2q-4 2 -7 2q-39 -2 -42 0q-17 2 -54 2q0 -3 -17 1h-3q-17 12 -17 33q7 24 33 24q20 4 24 4l15 -2
q11 0 31 25q3 0 22 30q12 0 33 48q21 10 21 24t-24 27q0 36 -19 50q-27 12 -27 31q-15 22 -46 29h-11q-19 -3 -21 -3q-16 0 -16 36q7 9 7 11h13q31 1 35 1z" />
    <glyph glyph-name=".notdef" horiz-adv-x="501" 
d="M97 894q3 0 26 -2h16h61q17 -5 17 -26q3 -2 3 -20q-25 -6 -14 -22q24 -55 38 -55h2q26 9 26 24q8 10 22 18l2 13v3q0 15 -24 36v5q17 24 31 24q24 -2 42 -2h15h24h6q21 -2 27 -2l13 2q13 -5 13 -27v-2q0 -17 -15 -28h-7q-29 7 -31 7h-2q-7 0 -35 -14q0 -2 -2 -2h2
q0 -4 -4 -4q0 2 -2 2l2 -4q-8 -26 -24 -35q-7 -5 -14 -27q-16 0 -28 -39q1 -13 39 -57q5 0 5 -9q-2 0 -2 -2h2q0 2 2 2q0 -3 16 -15q4 -15 45 -49q2 0 2 -4q3 2 33 4q25 -5 40 -30q2 -4 2 -9q-4 -13 -13 -13q-29 -9 -37 -9h-5q-13 0 -30 1h-7q-3 0 -24 -1h-20q-16 2 -26 0
q-35 6 -35 31q9 19 24 28q-9 60 -37 60q0 4 -13 4q-5 0 -33 -28q-11 -6 -11 -18q-24 -24 18 -28q18 -15 8 -39q-6 -11 -9 -11q0 2 -2 2q0 -2 -24 -1q-16 6 -24 -3v-2q-4 2 -7 2q-39 -2 -42 0q-17 2 -54 2q0 -3 -17 1h-3q-17 12 -17 33q7 24 33 24q20 4 24 4l15 -2
q11 0 31 25q3 0 22 30q12 0 33 48q21 10 21 24t-24 27q0 36 -19 50q-27 12 -27 31q-15 22 -46 29h-11q-19 -3 -21 -3q-16 0 -16 36q7 9 7 11h13q31 1 35 1z" />
    <glyph glyph-name=".null" horiz-adv-x="0" 
 />
    <glyph glyph-name=".null" horiz-adv-x="0" 
 />
    <glyph glyph-name="nonmarkingreturn" horiz-adv-x="508" 
 />
    <glyph glyph-name="space" unicode=" " horiz-adv-x="508" 
 />
    <glyph glyph-name="space" unicode="&#xa0;" horiz-adv-x="508" 
 />
    <glyph glyph-name="exclam" unicode="!" horiz-adv-x="577" 
d="M306 364h20q47 0 113 -55q23 -47 23 -66q0 -7 8 -43q-23 -90 -51 -90q-16 0 -66 -51h-11q-69 11 -130 78q0 8 -27 66q0 18 -8 59q0 50 94 94q25 8 35 8zM252 1422h16q125 -33 125 -97q11 0 11 -60v-30l-27 -145q-6 0 -6 -5v-79q-22 -84 -27 -163q5 -24 5 -48
q0 -139 -97 -139q-41 0 -55 90q0 15 6 49q-11 326 -38 470q15 109 27 109q13 0 60 48z" />
    <glyph glyph-name="quotedbl" unicode="&#x22;" horiz-adv-x="800" 
d="M208 1486q120 -47 120 -125q-11 -55 -22 -190q-13 -15 -27 -157l5 -38q0 -12 -16 -55q5 -46 5 -70q0 -39 -32 -60h-22q-86 38 -92 71q11 52 11 59v11q0 180 -39 250q0 116 -10 147q19 141 87 141q0 6 32 16zM578 1481h16q125 -30 125 -87q11 0 11 -54v-27l-27 -131
q-6 0 -6 -5v-71q-22 -75 -27 -147q5 -21 5 -43q0 -125 -97 -125q-41 0 -55 81q0 14 6 44q-11 294 -38 424q15 98 27 98q13 0 60 43z" />
    <glyph glyph-name="numbersign" unicode="#" horiz-adv-x="1255" 
d="M136 913q3 9 12 20q-1 11 3 21zM729 1445q16 5 26 5h-47q10 0 21 -5zM530 -8q-15 -5 -26 -5l47 -1q-10 1 -21 6zM1078 523q1 -12 -2 -22l16 44q-4 -10 -14 -22zM136 913l-1 -2q0 1 1 2zM666 518q1 2 1 3q-2 0 -4 -1zM803 862q-73 11 -116 6q-58 -7 -95 -6h-18
q-7 -41 -40 -82q-14 -50 -39 -97q3 -39 -30 -94q54 -4 107 -1q-1 -4 2 -6q5 13 26 1q72 19 92 17q10 29 33 57q14 49 39 97q-4 43 39 108zM604 940l39 5q37 28 50 21l20 -16l35 11q-1 -4 27 -31l1 5q45 -1 54 18q5 0 9 -1q21 54 34 110l21 29l56 152q0 6 6 38q-6 8 -6 12
q-1 7 56 50q18 102 33 101l13 -7q39 -1 42 -39q-21 -113 -53 -194q-57 -44 -55 -67q2 -25 -20 -93q-21 -2 -39 -47l-4 1q13 -38 17 -38l-13 -25q21 0 68 29q81 -1 187 -22q31 -18 18 -54l3 -15q-5 -14 -100 7q-57 -37 -62 -34q-4 2 -9 11q-30 5 -35 8l-105 3q-7 -11 -26 -34
q7 -72 -16 -72q-23 -62 -21 -89q-49 -30 -58 -84q28 0 55 -4q40 32 59 21q23 -13 46 -12l50 32l7 -4q25 -13 21 -22q70 -10 73 -59q-2 -5 -6 -3q2 -8 2 -15q-5 -8 -13 -16q-68 -8 -78 -16q-40 17 -71 2l-15 7l-5 9q-5 -13 -35 -2q-61 17 -85 16l1 -2q1 -15 -39 -41
q-36 -65 -35 -72l-11 4l6 -8q-19 -21 -38 -101q-17 0 -29 -101q-2 -34 -15 -34l5 -9l2 -17q-27 -25 -27 -71q-12 -7 -46 -71q-11 -5 -20 -8q-6 3 -13 8q0 -5 -5 -5q-45 21 -26 94q-9 0 -12 29l-1 9l49 38q10 22 8 50q-3 23 42 50q13 52 38 97q-2 21 30 97q7 18 17 40
q-17 3 -44 18q-42 -14 -46 -12l-89 -10q2 4 -26 30l-2 -4h-15q-30 -70 -48 -146l-21 -29l-57 -152q1 -6 -6 -38q6 -8 7 -13q0 -6 -56 -49q-19 -102 -34 -102l-13 8q-38 1 -42 39q22 113 53 194q58 44 55 67q-2 25 20 93q21 1 39 46h4q-13 38 -17 38l17 33q-18 3 -27 8
q-19 11 -78 -26q-81 1 -186 22q-32 18 -19 54l-2 15q5 14 99 -7q57 37 62 34q4 -2 9 -11q30 -5 35 -8l151 -4q6 7 13 16q-7 72 17 72q23 62 20 89q59 35 60 105q-45 -4 -90 2q-40 -32 -58 -21q-24 13 -47 11l-50 -31l-7 4q-24 13 -21 22q-70 9 -72 59q1 5 5 3q-2 8 -2 15
l14 16q67 8 77 16q40 -17 71 -2l15 -8l5 -8q5 13 35 2q92 -26 98 -11l29 -4q9 10 29 23q36 65 36 72l10 -4l-5 8q19 21 37 101q17 0 29 101q2 34 15 34l-5 9l-1 17q26 25 26 71q12 7 46 71q11 5 20 8q6 -3 13 -8q0 5 5 5q45 -21 26 -94q10 0 12 -29l1 -9l-49 -38
q-10 -22 -7 -50q2 -23 -43 -50q-13 -52 -38 -97q2 -21 -29 -97q-6 -17 -16 -38z" />
    <glyph glyph-name="dollar" unicode="$" horiz-adv-x="1079" 
d="M503 1470q25 0 60 -43q23 0 32 -27q-16 -27 -16 -38q11 -18 11 -33q0 -8 -11 -49q5 0 5 -5h-5l5 -11q0 -23 -11 -54h17q62 21 70 21q42 0 98 -43v-6q6 0 6 6l21 -11q22 0 38 49q22 11 22 16q11 -5 16 -5l-5 -11l11 5q23 0 49 -81v-6q-33 -34 -33 -49q0 -24 17 -76l-6 -54
q0 -4 6 -33q-3 -27 -17 -27l11 -16v-27q-8 0 -22 -11h-5q-45 0 -54 49v49q-32 0 -49 114q-10 0 -60 60q-97 38 -114 38h-6l-27 -6v-27q0 -22 6 -43q-6 -22 -6 -38q11 -58 11 -77q0 -7 -16 -16h-17q-54 4 -54 33q0 9 11 32h-5q5 42 27 71l-17 33l11 38q-5 16 -11 16
q-67 0 -103 -49q-87 -22 -87 -54q-10 -21 -60 -44l-5 -11v-10q0 -13 16 -49q-5 -30 -5 -49v-11q0 -34 54 -76q24 -60 98 -60q0 -16 11 -16q0 5 5 5l6 -11q-6 0 -6 -5q6 0 6 5q43 -11 65 -11q48 6 60 6q47 -33 103 -33q41 -43 125 -43l81 -76q-5 0 -5 -6l11 6q19 -1 76 -131
q16 0 16 -38q0 -27 -11 -65q11 -52 11 -76q0 -53 -98 -130q0 -45 -97 -66q-25 -33 -66 -54l-27 5h-5q-19 0 -38 -21h-16l-28 5l-5 -11q5 0 5 -5h-5l5 -11v-16q-11 -39 -11 -44q33 -95 33 -163v-16q0 -15 -54 -22q-65 17 -65 49l5 49q-11 18 -11 33q11 44 11 49l-5 27
q5 19 5 21q-5 39 -5 66h-6q-54 0 -157 38q0 24 -87 59q-11 -10 -44 -81l-32 -6q-38 7 -38 60v38q0 39 10 60q-5 30 -5 44q11 74 11 81q0 13 -16 87q0 16 43 43h22q32 -10 32 -87q10 -36 55 -81q74 -120 163 -120q0 -9 141 -21q13 0 60 43q34 -11 38 -11q105 57 125 114
q21 72 27 158q8 0 16 54q0 11 -70 60q-62 49 -87 49q-30 -5 -49 -5q-9 0 -44 43l-11 -5q-46 10 -54 10l-27 -10q0 5 -6 5q0 -11 -10 -11h-11q-41 0 -60 27q5 0 5 6l-11 -6q-15 10 -70 28q-34 36 -93 59q-43 79 -43 136q-45 58 -49 71q12 62 44 103q0 36 43 65q15 82 109 82
q112 58 125 59q0 23 5 60q0 4 -5 33q5 29 5 60h-5q8 59 27 59z" />
    <glyph glyph-name="percent" unicode="%" horiz-adv-x="1311" 
d="M1192 1561h5q16 -36 16 -66q-43 -49 -43 -87q-114 -114 -114 -184q-3 -22 -16 -22l5 -11q-92 -89 -92 -103q-38 -114 -71 -114q-53 -73 -81 -152q-27 0 -49 -76l-11 5l5 -11q-37 -35 -49 -81h-5q0 5 -6 5l6 -11q-27 -27 -82 -136q-81 -94 -97 -168q-43 -34 -71 -103
q-42 -20 -76 -131q-36 -91 -93 -108q-51 -82 -86 -82q-29 14 -44 44v10q64 183 152 256q13 6 71 141q61 61 92 109q0 -6 6 -6l-6 11q6 16 38 49l-5 11q46 52 70 125q75 48 98 136q0 28 60 54q52 74 87 163q43 12 43 27l-5 33q35 33 60 76q30 0 65 130q76 37 76 136
q15 11 54 82q72 49 93 49zM306 1316q86 -22 103 -22q34 11 44 11q40 -33 108 -76q33 -46 33 -130l-5 -27q16 -36 16 -77v-5q0 -14 -11 -49l5 -38q0 -16 -43 -130q0 -9 -33 -33q0 -35 -76 -49l-49 6q-46 -28 -59 -28h-6q-27 0 -92 39q-39 0 -87 168q-11 0 -11 27q11 72 11 76
q-16 36 -16 76q0 47 21 49l-5 11q0 54 49 120q79 81 103 81zM252 1169l-11 6v-6q5 0 5 -5q-16 -6 -16 -33v-38q0 -16 -16 -108q43 -82 43 -153q0 -27 109 -65h5q41 55 87 55q57 55 60 70l-5 11q32 70 32 87q-27 44 -27 60q0 80 -27 103q5 0 5 5q-11 0 -22 28l6 11l-11 -6
q-64 49 -119 49q-47 0 -77 -60q-8 0 -21 -11zM1050 827h6q18 0 136 -87q34 -77 49 -92q0 -20 27 -185q0 -9 -22 -92l5 -38q0 -31 -59 -98q0 -8 -27 -76h-38q-19 0 -77 11q-35 -11 -48 -11q-125 28 -125 49q-25 54 -66 54q-35 53 -76 212q-5 0 -5 5q32 69 32 125h-5
q39 125 71 125q0 55 103 76q0 10 27 11l49 -5q27 16 43 16zM964 702q-11 6 -17 6q-33 0 -60 -39q6 -37 6 -59q-33 -42 -33 -76v-28l38 -125q0 -41 82 -70h22q32 0 32 32q-5 33 -27 33v22q35 -11 49 -11h22q54 52 54 130v6l-33 114q-32 76 -92 76q-10 0 -43 -11z" />
    <glyph glyph-name="ampersand" unicode="&#x26;" horiz-adv-x="1227" 
d="M572 1339q84 -14 108 -28q27 -50 66 -85q27 -66 32 -125q-5 -29 -5 -56v-23q-68 -93 -114 -142q0 -53 -115 -85l-10 -39v-7q73 -186 125 -186q33 0 54 113q13 11 76 136q52 23 120 63q9 5 27 5h32q40 0 87 -56q55 -14 55 -86q0 -113 -87 -113q-20 0 -49 -6q-25 0 -60 97
h-16q-36 0 -66 -63q-22 0 -32 -74q-33 -16 -33 -51q0 -11 6 -61l-17 -86q10 -54 87 -124q23 -74 82 -74h5q6 0 76 56l11 -5v5h-5q27 67 60 86h10q71 -11 71 -63v-11q0 -67 -125 -164q-65 -29 -76 -29h-38q-116 0 -179 130q5 0 5 6h-5q0 -6 -6 -6q0 14 -27 18
q-29 0 -103 -102q-37 -23 -125 -40q0 -9 -22 -23q-63 28 -81 28h-98q-56 0 -93 74q-81 51 -81 221q0 208 98 301q0 -6 5 -6v6q-5 0 -5 5l21 18l11 -6v6q-5 0 -5 5q68 74 119 86q11 17 11 33v17q0 36 -38 232q22 182 55 182q0 74 201 96zM409 1096q0 -124 59 -170
q0 -20 33 -40h11q43 0 109 108q19 2 59 107v35q-31 32 -54 79q-76 5 -125 28q-81 -24 -81 -85q-11 -52 -11 -62zM208 393q21 -43 27 -114q91 -88 146 -101q0 -9 17 -18h43l38 11q0 -5 6 -5v5q-6 0 -6 7l65 33q0 20 71 86v5q0 36 -43 198q0 8 -71 79l5 12h-5q0 -5 -5 -5
q-14 22 -38 84q-29 23 -60 23q-76 -46 -76 -56q-114 -99 -114 -244z" />
    <glyph glyph-name="quotesingle" unicode="'" horiz-adv-x="466" 
d="M240 1456q36 0 109 -60l-5 -11h10v-5q0 -14 -27 -93q11 -49 11 -70q-11 0 -22 -38l6 -28q-15 -18 -22 -141q-5 0 -5 -11q5 -47 5 -81q0 -6 6 -6q-39 -92 -109 -92q-33 29 -33 82q6 37 6 59l-17 76q11 41 11 55q-49 116 -49 195q6 0 6 6q-11 0 -11 11v59q10 82 65 82
q48 11 65 11z" />
    <glyph glyph-name="parenleft" unicode="(" horiz-adv-x="647" 
d="M534 1559h49l27 -28v-16q0 -9 -27 -60q-11 -37 -38 -54q0 -11 -60 -81q-53 -114 -71 -136q-43 -22 -43 -98q-18 0 -38 -82q-13 -7 -28 -48l11 -55q-32 -63 -32 -76v-11q0 -22 5 -43q-11 -48 -11 -76q15 -60 22 -60q-16 -46 -16 -60l21 -130v-27q33 -38 33 -44
q-5 -30 -5 -43q0 -21 97 -196l11 -22q-5 0 -5 -5h5q0 5 6 5q0 -19 70 -92q28 -72 82 -125q0 -14 32 -92q-19 -55 -38 -55h-10q-47 9 -142 87q-44 82 -65 82q-34 0 -49 98q-4 0 -32 43l5 11h-5v-6q-43 0 -55 153q-20 61 -54 70q0 11 -27 114l11 169q-15 141 -28 141
q0 61 33 147q1 81 54 184q18 93 49 93q19 102 33 130l60 109l10 -6v6q-5 0 -5 5q63 50 82 114h5q0 -5 5 -5l-5 11q39 60 71 60z" />
    <glyph glyph-name="parenright" unicode=")" horiz-adv-x="695" 
d="M96 1562h17q10 -1 38 -49q58 -13 98 -65q41 -120 76 -120v-5q-6 0 -6 -6l11 6q33 -19 33 -49q-6 -29 -6 -33q0 -13 44 -60q32 -102 70 -244q14 0 33 -65v-33q0 -74 38 -92q22 0 22 -33v-11q-22 -24 -22 -27v-22q22 -86 22 -103q-22 -33 -22 -49q0 -5 27 -65
q-22 -54 -27 -82q11 -46 11 -54q0 -26 -55 -71h-43q-38 -141 -76 -141q-42 -69 -60 -157q0 -24 -109 -114q-12 -91 -21 -104h-11q-15 0 -98 38q-87 0 -87 55q9 97 49 97q60 54 60 71h5l11 -5l-5 11v5q36 0 103 130q37 20 81 158q32 0 82 288q-5 69 -11 76q7 51 11 65
q0 196 -44 256q-52 228 -86 228q-33 69 -93 141q0 40 -60 60q-43 58 -54 98q12 76 54 76zM419 90l11 -16l-16 -11q-11 0 -11 11q0 7 16 16z" />
    <glyph glyph-name="asterisk" unicode="*" horiz-adv-x="912" 
d="M14 1360q-2 5 -7 3l1 -4zM409 916q-13 -11 -23 -88l-20 -35q-31 -64 -79 -89q1 -5 -25 -13q-40 -16 -56 29q-6 -3 -17 8l-5 16q-1 22 34 76q0 41 43 55q1 69 60 89q9 39 -3 69q-11 -5 -105 21q-3 3 -10 0l-1 3l-1 8h-9q3 -3 -1 -4l-83 42q-29 63 -1 77q7 4 28 45
q40 10 53 -11q27 5 72 -27q28 -1 63 -20q12 3 34.5 8t25.5 8q3 -3 6 0l-3 3q-3 -3 -5 -1q-1 26 5 81q-22 96 -2 114q2 7 13 17q34 66 56 44l52 -7l-3 -29q35 -52 -1 -85q40 -39 9 -83q8 -57 -2 -88q2 -5 3 -9q92 36 112 61q12 -6 69 18q51 6 92 3q19 -23 17 -94l-1 -4
q-18 -38 -93 -43l-5 7l-1 -4q3 -1 1 -5q-29 -5 -42 -40q-48 14 -90 -16q34 -34 68 -95q20 -15 21 -24l8 -6l-14 -12l24 -11q11 -26 32 -84q-4 -45 -84 -58l-17 5l5 7h-10q-44 86 -88 100q-30 29 -44 61q-18 14 -17 27q-3 -12 -4 -8q4 -1 5 4l-4 1q-1 -5 -5 -4
q-17 -3 -37 -10z" />
    <glyph glyph-name="plus" unicode="+" horiz-adv-x="988" 
d="M511 1088q49 -24 49 -81v-109q2 -39 16 -54l-5 -27q0 -85 38 -104q21 -16 49 -16q12 0 21 6q6 0 6 -6l38 6h43q196 -9 196 -33q0 -13 16 -33q-20 -76 -38 -76h-136q-38 0 -119 6q0 -9 -22 -22q-8 0 -76 5q-27 -7 -27 -38v-54q0 -12 16 -71q0 -18 -16 -43q16 0 16 -60
q-36 -147 -76 -147q-50 0 -70 131v11q0 3 5 70q-11 18 -11 33v5q0 24 11 44q-6 136 -65 136h-6q-74 0 -119 -22l-22 5q-24 0 -49 -21h-11q-130 27 -130 59l-6 38q22 50 44 60l11 -5v5q-6 0 -6 6q22 11 60 11q33 0 92 -17q54 17 120 22q0 12 65 22q15 71 22 125
q-27 74 -27 92v65h11l-6 11q42 65 98 65z" />
    <glyph glyph-name="comma" unicode="," horiz-adv-x="553" 
d="M295 361q42 -25 89 -42q25 -21 58 -109q-12 -24 -38 -173q-51 -50 -67 -100l-8 3v-3h4q-29 -93 -76 -93q-25 -6 -55 -21q-16 -5 -33 -5h-5q-24 0 -24 26q3 69 24 76q0 -5 5 -5l-5 8q13 21 34 43q0 -5 4 -5l-4 9q21 38 21 50v13q-76 83 -76 105q-12 40 -12 43
q0 123 97 159q1 3 67 21z" />
    <glyph glyph-name="hyphen" unicode="-" horiz-adv-x="910" 
d="M413 706q19 -9 41 -9h11q9 0 50 9q33 -9 46 -9q15 0 40 9q37 -4 41 -4q45 4 57 4q53 -13 65 -13h41q37 -15 61 -60v-21q-15 -17 -15 -26l-10 4q4 -8 4 -13q-10 -13 -10 -21h-5l-10 4v-4q5 0 5 -4q-33 -14 -76 -14l-61 5q-37 -16 -71 -26q-20 9 -56 9h-41q-54 12 -168 26
q-4 0 -40 -9q-15 0 -92 13q-4 0 -30 -18h-11q-34 9 -106 14q-23 22 -36 69q28 72 107 72q46 3 46 9l25 -5h107q41 0 91 9z" />
    <glyph glyph-name="hyphen" unicode="&#xad;" horiz-adv-x="910" 
d="M413 706q19 -9 41 -9h11q9 0 50 9q33 -9 46 -9q15 0 40 9q37 -4 41 -4q45 4 57 4q53 -13 65 -13h41q37 -15 61 -60v-21q-15 -17 -15 -26l-10 4q4 -8 4 -13q-10 -13 -10 -21h-5l-10 4v-4q5 0 5 -4q-33 -14 -76 -14l-61 5q-37 -16 -71 -26q-20 9 -56 9h-41q-54 12 -168 26
q-4 0 -40 -9q-15 0 -92 13q-4 0 -30 -18h-11q-34 9 -106 14q-23 22 -36 69q28 72 107 72q46 3 46 9l25 -5h107q41 0 91 9z" />
    <glyph glyph-name="period" unicode="." horiz-adv-x="551" 
d="M247 345h22q51 0 124 -60q26 -52 26 -73q0 -8 8 -47q-26 -99 -56 -99q-17 0 -72 -56h-13q-75 12 -142 86q0 9 -30 73q0 20 -9 65q0 54 104 102q27 9 38 9z" />
    <glyph glyph-name="slash" unicode="/" horiz-adv-x="680" 
d="M737 1622h-54q19 0 38 -17q0 6 6 6q49 -26 19 -120q11 0 11 -38v-11l-60 -49q-14 -29 -14 -65q0 -29 -54 -65q-20 -66 -54 -125q0 -27 -44 -125q-20 -49 -60 -120q-5 -68 -59 -135q-21 -64 -55 -125q0 -60 -65 -152q0 -33 -16 -33q0 -5 5 -5q-49 -99 -81 -207l-27 -38
l-81 -196q0 -8 -11 -49q6 -10 6 -16q0 -8 -69 -64q-32 -131 -49 -131l-14 10q-44 0 -44 49q37 146 82 250q70 58 70 87q0 32 33 120q24 2 49 60h5q-11 48 -16 48l60 109q0 6 38 54q0 93 27 93q33 80 33 114q81 53 81 163l-5 33q0 20 49 54q48 83 48 92l11 -5l-5 11
q24 27 54 130q19 0 44 130q6 44 21 44l-5 11v22q33 33 38 92q14 9 60 92q35 17 54 17z" />
    <glyph glyph-name="zero" unicode="0" horiz-adv-x="1182" 
d="M1593 1406q30 0 54 -43v-17q0 -7 -16 -16h-6q-39 0 -49 54q9 22 17 22zM618 1295q108 -27 146 -55q68 0 136 -119q8 0 16 -22q-5 0 -5 -5h5q0 5 6 5q26 -47 49 -76q-6 0 -6 -5q11 0 17 -33q-6 0 -6 -5q22 0 49 -180q11 0 11 -146q0 -17 -11 -38q6 -72 6 -120
q-17 -35 -22 -136q-63 -70 -93 -168q-8 0 -27 -33h6q-25 -59 -60 -70q-114 -30 -114 -55h-6l6 -11l-27 -16q0 6 -6 6v-6q6 0 6 -5q-20 -11 -44 -11h-16q-51 0 -103 5q-30 -5 -60 -5q-20 29 -82 60q0 14 -97 86q-77 67 -77 104q-76 129 -76 244q-9 0 -10 27q0 5 10 44v65
q17 73 17 87q-11 48 -11 65q30 197 54 218q0 34 87 135q0 28 16 28l-5 10q130 85 130 93q82 32 185 32q0 6 6 6zM433 1121q0 5 -6 5v-5q6 0 6 -5q-91 -71 -109 -71q0 -60 -65 -212l-27 -98l16 -76l-16 -76q24 0 32 -141q24 0 33 -114q7 0 43 -76q26 -53 120 -104
q14 -27 49 -27q142 16 157 27q66 20 115 76q51 38 59 87q33 49 33 125q27 0 49 174q0 13 -16 76q10 55 10 65q-16 45 -21 142q-20 0 -49 103q0 89 -82 103q-24 49 -49 49q-4 0 -32 -5q-36 16 -49 16q-6 0 -16 -5q-43 16 -55 16h-5l-33 -6q-9 6 -27 6q-7 0 -49 -49h-16z" />
    <glyph glyph-name="one" unicode="1" horiz-adv-x="730" 
d="M405 1281q125 -12 125 -49q6 0 6 -5q-6 0 -6 -6q6 0 17 -5l-11 -234q5 -28 5 -54q-21 -81 -21 -119q10 -53 16 -223q-11 -30 -16 -76q0 -10 10 -44l-10 -60q10 -40 10 -76v-81q11 -39 11 -44q0 -9 -11 -32q6 -60 6 -103v-11q0 -50 -33 -66h-54q-49 8 -49 49l5 33
q-10 46 -10 54l5 66l-5 27q5 28 5 54l-5 33q5 72 21 119v103l6 11q-22 0 -27 120q0 10 10 43q-5 56 -5 87v55q-19 103 -71 103h-27q-43 -36 -92 -44q0 6 -6 6q0 -8 -16 -17h-43q-71 20 -71 71q0 52 163 120q0 31 141 173q1 8 27 22z" />
    <glyph glyph-name="two" unicode="2" horiz-adv-x="1073" 
d="M493 1262l49 -11q38 6 60 6q102 -38 212 -60l82 -98q-6 0 -6 -5h6q0 5 5 5q23 0 54 -190q-30 -201 -70 -201q-5 -17 -114 -98q-29 -71 -87 -71q-132 -54 -152 -54q-12 0 -49 -54q-52 0 -82 -55q-27 0 -71 -65q-76 -61 -76 -114q0 -92 66 -92q70 16 76 16h11q13 0 65 -16
h5q71 16 76 16h6q25 0 87 -11q84 12 119 22q11 0 54 -16q36 0 66 76l21 16h6l16 -11l-5 -54v-11l21 -33q0 -46 -43 -76q0 6 -5 6v-6q5 0 5 -5q-8 0 -22 -11q-3 0 -54 16q-17 0 -38 -5q-134 5 -217 16q-36 -16 -49 -16q-22 0 -82 11q-6 0 -16 -6q-30 6 -49 6
q-29 -10 -147 -17q-52 33 -60 33l6 11l-11 -6q-9 0 -27 33l5 11v87q29 135 120 233q1 19 109 66q26 54 86 54q28 43 82 43q81 39 152 125q74 0 114 82q33 0 44 76q-32 190 -66 190q-60 93 -70 93q-27 7 -27 21h-11q-23 0 -44 -5l-27 5q-4 0 -32 -5q-45 27 -60 27
q-21 -14 -103 -27q-31 -33 -82 -54q0 -14 -54 -104q-14 -130 -49 -130q0 -11 -11 -11h-22q-22 0 -27 65q0 94 71 125q71 131 81 131t49 38q125 38 130 38q0 -6 6 -6v6q-6 0 -6 5z" />
    <glyph glyph-name="three" unicode="3" horiz-adv-x="1020" 
d="M503 1293l55 -17l135 17q153 0 153 -55q8 0 16 -49q-14 -59 -27 -59q0 5 -6 5l6 -11q-88 -52 -114 -103q-76 -37 -76 -125q-6 0 -11 -27q0 -39 87 -60q157 -137 157 -195q29 -104 33 -104q-16 -36 -16 -43l5 -76q-60 -144 -76 -174q-6 0 -49 -71q-7 0 -109 -103l-97 -65
q-78 -60 -109 -60q-186 -92 -217 -92q-69 -6 -82 -6q-60 10 -60 71q36 55 87 65q18 11 27 11q39 -5 44 -5q11 0 60 48q43 0 103 44q54 0 125 54q0 -5 5 -5v5q-5 0 -5 6q30 21 54 70l120 114q43 111 43 131v76q0 32 -71 136q-53 59 -124 59q-2 11 -39 17q-120 -26 -124 -44
q0 -20 -82 -32q-35 11 -43 11l5 10l-11 -5q-22 8 -22 16q6 0 6 6h-11v11q0 47 54 92l11 -5v5q-5 0 -5 5q65 56 108 125q14 0 76 55q40 23 77 108v22q-4 17 -71 38q0 8 -16 16h-22q-37 -32 -60 -32l-54 27l-71 -33q-51 -21 -81 -81l-22 -11q-98 0 -98 109q15 119 92 119
q76 27 115 27h5l11 -5q2 11 11 11h27q7 0 87 -11h27q16 0 54 22z" />
    <glyph glyph-name="four" unicode="4" horiz-adv-x="971" 
d="M638 1322h11q54 0 76 -65q-5 -134 -5 -212q-10 -54 -17 -54l6 -11v-65q0 -60 11 -104l-17 -43q6 -46 6 -76q-11 -73 -11 -93v-27q0 -26 27 -119q0 -33 33 -33h32q6 0 6 6q7 -4 76 -11q28 5 54 5q60 -28 60 -71q0 -18 -71 -43q-38 16 -130 27q-9 -18 -65 -49
q-22 -59 -22 -98q27 -137 27 -233q-5 -38 -43 -38q-87 14 -87 70q22 148 22 169v49h10q0 108 -108 108q-31 10 -147 22q-9 0 -33 -11q-46 6 -76 6h-54q-27 -22 -38 -22q-76 30 -76 76q15 67 54 141q0 10 65 93q0 13 71 141q0 28 60 120q35 51 49 108q26 61 70 93
q22 65 44 87h-6q14 61 44 97q59 60 92 60zM323 594l-11 5q6 -10 6 -16q-25 -70 -71 -70l-5 -28v-11q11 -65 119 -65l22 -5q50 16 65 16l76 -16h27q41 0 76 103q-5 71 -5 114v11q0 17 -16 49l16 109q0 8 -11 49q11 48 11 70q0 114 -38 114q-45 -19 -82 -108q-33 0 -48 -87
q-20 0 -55 -87q-74 -85 -76 -147z" />
    <glyph glyph-name="five" unicode="5" horiz-adv-x="1052" 
d="M693 1299q22 -11 33 -11q48 6 59 6q39 -6 44 -6l32 6q26 0 66 -55v-5q0 -6 -6 -6q6 -10 6 -16q0 -31 -38 -49q-10 6 -66 11q-132 -5 -201 -5q-5 0 -16 -6q0 6 -114 11q-8 0 -76 -5q-30 5 -44 5q-10 0 -54 -65q-11 0 -11 -33l16 -60q-16 -72 -16 -86q38 -107 49 -115
q0 -12 27 -16q113 38 174 38q133 0 196 -38q33 0 87 -54q50 0 103 -152q22 -22 22 -60v-109q0 -48 -49 -152q0 -5 -11 -5l5 -11q-32 -82 -92 -136q-36 -71 -82 -71q-48 0 -87 -70q-66 -60 -124 -60q0 -23 -93 -38q-37 -25 -92 -38q0 -27 -38 -27q-109 27 -109 43v11
q0 29 44 65v6l10 -6l-5 11q0 27 141 33l136 59q28 23 82 49q31 54 108 82q12 0 27 54q50 0 60 71q33 0 55 152q5 0 5 22q-2 56 -65 152q5 0 5 5l-11 -5q-72 77 -157 98l-38 5q-158 -19 -158 -43q-45 -29 -119 -109h-17q-92 13 -92 81v11q0 7 5 55q-10 48 -32 271q0 11 11 38
q-6 71 -6 114v6q0 130 33 130h49q20 17 38 17h11q24 -22 49 -22q34 11 43 11t33 -11q230 16 255 27z" />
    <glyph glyph-name="six" unicode="6" horiz-adv-x="1073" 
d="M822 1365q70 -31 70 -71v-5q-9 -22 -38 -22h-38l-11 6q0 -34 -125 -38q-34 -32 -103 -60q-4 -17 -65 -38l-60 -49q-47 -44 -65 -82q-44 0 -87 -135q-28 0 -33 -114q0 -20 -16 -71v-6q0 -10 16 -10q64 23 98 59q11 0 169 66h5q37 -17 44 -17q80 6 108 6q27 0 141 -93
q-5 0 -5 -5h5q0 5 6 5l11 -21q-6 0 -6 -6h6q0 6 5 6v-6l-5 -11h5v6q11 -6 17 -6l-6 -11h6q0 6 5 6l16 -22l-5 -11h5q0 6 6 6q0 -17 38 -98q-6 0 -6 -6q15 0 22 -86q4 0 11 -22q0 -11 -22 -114l6 -33q0 -17 -87 -125l-6 -27v-44q-11 -13 -11 -21l-54 -6l-38 6q-77 0 -109 -49
q-22 0 -76 -16q-29 9 -146 27q-42 41 -142 76q-27 33 -27 49q6 0 6 5q-87 40 -87 179q-20 0 -28 234q38 145 38 332q18 6 38 97q23 0 44 60q13 5 43 71q27 11 87 92q35 29 147 82q0 -6 5 -6q0 14 55 27q50 13 125 49q52 0 98 11zM566 686l-27 5h-27l-11 -5q0 5 -5 5v-5
q5 0 5 -6q-61 -42 -120 -70q-4 -19 -32 -33l-11 6v-6q5 0 5 -5q-54 -64 -54 -93q0 -2 6 -21l-17 -65q23 -112 49 -153q54 -81 125 -114l27 -16l27 5h49q33 0 114 44q71 0 71 32q0 17 54 49l49 71q6 38 11 38l-16 60q11 38 11 60q0 50 -71 152q-70 48 -119 59q-6 17 -33 17
h-5q-55 -1 -55 -11zM561 262h5q11 -2 11 -11v-11h-5q-11 0 -11 11v11zM941 77h11v-21q0 -30 -22 -38h-16q-8 0 -16 16z" />
    <glyph glyph-name="seven" unicode="7" horiz-adv-x="1036" 
d="M760 1316q27 -16 43 -16h44q124 -16 124 -49q6 -10 6 -22v-43q0 -32 -44 -82q0 -31 -32 -59q-10 -36 -54 -82l5 -11q-84 -149 -87 -212q-18 -14 -33 -76q-21 0 -38 -114q-10 -22 -21 -22l5 -11q0 -14 -38 -97q-16 -100 -16 -131l5 -11q-22 -36 -22 -59q0 -17 6 -17
q-7 -83 -11 -97q5 -30 5 -49v-44q0 -22 -10 -70l5 -39q-22 -50 -43 -65h-28q-38 0 -87 33l28 109v81q0 100 27 255q0 87 38 158q0 69 49 158q27 105 54 125q38 161 82 195q21 75 27 169q0 24 -55 38l-49 -6q-10 9 -92 16q0 7 -33 11q-52 0 -146 -21l-55 16q-16 0 -86 -54
q0 5 -6 5q0 -5 6 -5l-6 -28v-27q26 -34 27 -43q-33 -39 -38 -93q-35 -10 -49 -10h-32q-43 0 -49 38q16 27 16 54v11q0 23 -11 43q10 212 55 212q32 27 48 27q20 0 49 -5q61 5 109 5q87 -11 92 -11q18 11 33 11q44 -11 54 -11h11q146 0 218 22z" />
    <glyph glyph-name="eight" unicode="8" horiz-adv-x="1224" 
d="M616 1274l217 -22q10 0 71 -49q32 0 120 -103q38 -109 38 -190q-28 -85 -28 -109q-44 -44 -81 -60q-22 -50 -22 -59v-17q109 -95 109 -114l-6 -11h6q0 6 5 6q37 -51 55 -147q-15 -76 -22 -76l-60 -163q-81 -68 -81 -82l-17 11v-5q11 -2 11 -11l-32 -22h-38q-6 0 -6 6
q-40 -17 -49 -17l-49 6q-17 0 -152 -49h-11q-116 54 -201 54q-16 0 -16 11l-11 -5q-34 45 -98 70q-81 70 -81 125q-36 32 -49 120q25 152 54 152q41 38 49 92q76 20 76 76q-4 49 -60 104q-49 162 -49 184q12 82 49 115q7 0 49 70l98 54q15 44 82 44zM535 1138q-35 11 -44 11
q-46 -16 -65 -54q-16 -20 -65 -33q0 -6 -38 -44l-6 -32v-44q0 -65 158 -157q63 0 141 -33l60 -16h5q180 25 180 71q9 11 54 38q32 58 32 81v38q0 73 -86 125q-18 60 -115 60h-27q-28 27 -49 27l-27 -5q-20 10 -49 10zM458 638q0 6 -5 6l5 -11v-6q-92 -47 -92 -70
q0 -33 -49 -55q-24 -92 -49 -92l-5 -33q11 -123 54 -130q35 -16 65 -60q66 0 120 -43q19 0 98 -17q164 13 201 49l49 -5q39 34 141 87q11 87 11 92v11q-38 34 -38 92l-55 87q-23 0 -54 44q-5 0 -5 -6q-64 38 -76 38q-14 0 -55 -10l-65 38q-9 5 -27 5h-16q-90 0 -153 -11z
" />
    <glyph glyph-name="nine" unicode="9" horiz-adv-x="1112" 
d="M550 1300q150 -27 218 -76q97 -64 97 -93l76 -125l-5 -10q16 0 27 -93q7 0 22 -43l-6 -38v-17q0 -38 6 -43q-6 -37 -6 -60v-27q0 -51 6 -92q0 -107 -49 -142q-26 -195 -43 -195q-66 -169 -98 -169q-46 -23 -55 -65q-49 -17 -49 -27q-34 -53 -59 -60l-27 6q-28 0 -33 -22
l5 -33q-73 -38 -152 -38l-11 6q-65 -11 -103 -11h-60q-35 0 -49 38q0 38 44 60q43 -11 65 -11q72 0 103 43l71 11q0 -5 5 -5v5q-5 0 -5 6q12 0 38 32q54 9 87 27l-5 11q81 45 81 93l27 27q0 -6 6 -6l-6 11q52 95 76 120q0 17 44 119v6q-22 81 -38 81q-7 0 -49 -49
q-39 0 -60 -11q0 6 -5 6q-65 -41 -136 -54h-17q-92 0 -135 48q-79 22 -158 120q-24 7 -54 87q-44 37 -44 98l6 38q0 11 -6 59q0 166 120 310q21 36 119 93q73 32 174 54zM246 936q5 -30 5 -49q-21 -71 -21 -87q0 -26 32 -125q-5 0 -5 -5h5q0 5 6 5q0 -10 92 -109
q49 -43 136 -43q35 11 43 11q18 -11 33 -11h16q6 9 76 27q25 53 93 71q87 96 87 206q-11 48 -11 65q0 9 5 76q-40 75 -87 115q0 54 -201 114q-114 -25 -141 -49q-120 -69 -120 -136q-21 -19 -43 -76z" />
    <glyph glyph-name="colon" unicode=":" horiz-adv-x="593" 
d="M273 1029q46 -15 55 -15l10 5q45 0 80 -80q32 0 35 -114q-16 -2 -40 -71h-30q-20 0 -55 -35q-125 0 -125 30q-44 0 -50 130v40q0 68 120 110zM315 324q56 0 126 -98v-15q0 -105 -70 -150q-10 0 -42 -33h-14l-19 15h-23q0 -11 -19 -19q-9 0 -52 52q-51 33 -51 84v28
q0 39 42 65q0 5 -5 5q0 44 127 66z" />
    <glyph glyph-name="semicolon" unicode=";" horiz-adv-x="594" 
d="M283 1021q46 -15 56 -15l10 5q46 0 81 -82q33 0 36 -116q-16 -2 -40 -72h-31q-21 0 -56 -35q-127 0 -127 31q-45 0 -51 132v41q0 68 122 111zM320 361q44 -26 93 -44q26 -21 61 -114q-13 -25 -40 -180q-53 -52 -70 -105l-9 4v-4h5q-31 -97 -79 -97q-27 -6 -58 -22
q-17 -5 -34 -5h-5q-26 0 -26 27q4 73 26 79q0 -5 5 -5l-5 9q13 22 35 45q0 -5 4 -5l-4 9q22 39 22 52v14q-79 87 -79 109q-13 42 -13 45q0 128 101 166q2 3 70 22z" />
    <glyph glyph-name="semicolon" unicode="&#x37e;" horiz-adv-x="594" 
d="M283 1021q46 -15 56 -15l10 5q46 0 81 -82q33 0 36 -116q-16 -2 -40 -72h-31q-21 0 -56 -35q-127 0 -127 31q-45 0 -51 132v41q0 68 122 111zM320 361q44 -26 93 -44q26 -21 61 -114q-13 -25 -40 -180q-53 -52 -70 -105l-9 4v-4h5q-31 -97 -79 -97q-27 -6 -58 -22
q-17 -5 -34 -5h-5q-26 0 -26 27q4 73 26 79q0 -5 5 -5l-5 9q13 22 35 45q0 -5 4 -5l-4 9q22 39 22 52v14q-79 87 -79 109q-13 42 -13 45q0 128 101 166q2 3 70 22z" />
    <glyph glyph-name="less" unicode="&#x3c;" horiz-adv-x="961" 
d="M65 658v16q72 38 174 66q50 70 97 70q54 0 115 33h5l49 -6q19 3 114 76q100 0 179 71l22 11q76 -7 76 -76v-6q-10 -5 -16 -5v-33q0 -32 -44 -32q0 -8 -38 -17l-11 6q-63 -33 -184 -54q-40 -34 -104 -55q-13 -23 -38 -32q-48 5 -59 5q-67 -22 -120 -27q0 -11 -16 -11v-38
q27 0 244 -81q61 0 76 -39q117 -48 201 -48q11 5 17 5l27 -16h38q0 -15 16 -33q0 -71 -38 -71q0 -7 -43 -21l-82 27v5q-5 0 -5 -5q-31 22 -38 22l5 11h-5v-6q-31 27 -169 38q-27 18 -152 60q-153 71 -212 71q-26 0 -65 65q-16 28 -16 54z" />
    <glyph glyph-name="equal" unicode="=" horiz-adv-x="1067" 
d="M298 861q105 -22 131 -22l48 11q85 -16 115 -16q22 0 86 16q27 0 87 -11q10 6 76 16q36 -16 77 -16l38 6q59 -20 59 -33l-5 -11h5q0 6 6 6q0 -9 11 -22v-27q-83 -44 -120 -44q-35 11 -49 11l-81 -16q-21 11 -180 16q-46 -11 -54 -11l-33 17q-128 -7 -130 -11l-33 5h-21
q-65 0 -147 -22h-22q-65 18 -65 98q0 31 71 54q13 0 81 -5q36 11 49 11zM217 524q101 -11 130 -11h16q23 0 44 6q62 -6 108 -17q5 0 55 11q72 -27 147 -27q27 16 86 22q0 9 28 11q16 -17 119 -22q58 -34 60 -60v-22q0 -40 -16 -43h-6q-22 0 -70 11q-16 0 -55 -33h-32
q-44 38 -93 38l-65 -43l-11 5h-38q-12 0 -65 27q-11 0 -38 -38q-20 -11 -44 -11h-16q-27 0 -65 49q-11 6 -16 6q-6 0 -17 -6q-29 6 -49 6h-16v-17l-5 -27q-82 6 -120 6l-11 -6q-33 7 -59 33q0 125 38 125q30 27 76 27z" />
    <glyph glyph-name="greater" unicode="&#x3e;" horiz-adv-x="950" 
d="M945 631v-16q-72 -38 -174 -66q-50 -70 -97 -70q-54 0 -115 -33h-5l-49 6q-19 -3 -114 -76q-100 0 -179 -71l-22 -11q-76 7 -76 76v6q10 5 16 5v33q0 32 44 32q0 8 38 17l11 -6q63 33 184 54q40 34 104 55q13 23 38 32q48 -5 59 -5q67 22 120 27q0 11 16 11v38
q-27 0 -244 81q-61 0 -76 39q-117 48 -201 48q-11 -5 -17 -5l-27 16h-38q0 15 -16 33q0 71 38 71q0 7 43 21l82 -27v-5q5 0 5 5q31 -22 38 -22l-5 -11h5v6q31 -27 169 -38q27 -18 152 -60q153 -71 212 -71q26 0 65 -65q16 -28 16 -54z" />
    <glyph glyph-name="question" unicode="?" horiz-adv-x="908" 
d="M412 1339q40 -10 54 -10l38 5q119 -33 120 -49q10 5 16 5q131 -54 131 -119q54 -34 54 -158l5 -27q0 -89 -65 -141q-38 -72 -163 -136q-65 0 -81 -98q-38 -27 -38 -125q-30 -32 -33 -32h-11q-103 34 -103 103v11q18 17 33 103q77 152 125 152q0 -5 5 -5v5q-5 0 -5 6
q150 75 157 141q13 0 27 43q-48 163 -98 163q0 20 -65 38h-16q-50 0 -98 -27q-46 6 -76 6v-6l-11 6h-38q-38 0 -70 -87v-17q67 -54 76 -86v-66q-37 -27 -49 -65q-21 -16 -27 -16q-131 12 -131 60q-30 55 -32 97q27 127 86 229q64 0 82 32q16 27 43 27q11 -5 17 -5
q22 0 141 43zM417 302h49q82 -66 82 -98q-14 -81 -87 -152h-11q-8 0 -49 11q-32 -4 -32 -11q-43 0 -93 97l-5 33v11q21 98 92 98q0 -6 6 -6v6q-6 0 -6 5z" />
    <glyph glyph-name="at" unicode="@" horiz-adv-x="1501" 
d="M443 298q-11 -18 -11 -33v-5q0 -57 119 -147h44l65 11l54 -16q18 0 169 70q0 12 76 82q0 4 21 81q0 60 -43 60q-29 0 -60 44l-27 5h-11q-15 0 -60 -32q-18 0 -92 5q-108 -23 -125 -33q-80 -38 -119 -92zM443 298q0 5 -6 5v-5h6zM1069 8q-4 -1 -7 -3q-34 7 -71 38h-5
q-11 0 -54 -11q-47 32 -55 32q-10 -5 -16 -5q0 5 -5 5q0 -15 -115 -54h-130q-52 16 -65 16h-38q-15 12 -55 22q11 14 11 16h-5q0 -10 -11 -10q-49 60 -103 108q0 10 -11 33q4 179 38 179q98 98 130 98q33 0 33 5l11 -5h65q19 0 54 27q35 -11 44 -11q83 23 119 38q0 12 49 17
q6 0 6 -6q68 34 97 87q0 83 -38 103q-5 0 -48 65q-51 22 -60 22q-7 0 -71 -22l6 11l-11 -5h-6q-20 16 -38 16q-8 0 -76 -27q-29 5 -49 5q-23 -13 -32 -38q5 -55 5 -87v-21l-11 5l6 -11v-5q-60 -27 -71 -27q-80 27 -87 49q0 21 -5 21q18 82 38 82q0 -6 5 -6l-5 11
q72 104 146 104q86 27 104 27h32q230 0 283 -76q11 -2 11 -11q-6 0 -6 -6l11 6q60 -21 60 -87l32 -93q-10 -46 -10 -59q10 -34 10 -55q-27 -56 -27 -76l17 -54q-22 -43 -22 -71v-16q18 -27 22 -27q-11 -20 -11 -44q20 -70 38 -70h5q24 0 85 45q11 17 23 39q66 33 58 105
q-2 14 9 72l-10 33l18 73q-1 10 -11 51l-1 58q-31 32 -46 67q1 16 1 30q-4 23 -6 40q-44 40 -75 100q-68 80 -129 74h-5q-95 49 -103 48l-7 8l-2 14l-25 -3l-78 32q-11 0 -58 -2l-63 8q-40 -25 -81 -34q-35 8 -57 9l-16 1q-17 -12 -36 -23l-1 -19l-66 -49q-27 -11 -36 -11
q-27 2 -115 -125q-6 -2 -12 -5q-26 -35 -26 -40l-10 -6l-13 1q-13 -25 -15 -60q-1 -16 -21 -80l4 -38l-32 -81q0 -11 2 -59l-8 -65q25 -42 34 -83q-8 -37 -9 -60l-1 -16q38 -54 58 -128q54 -101 115 -104h5q85 -70 93 -70l6 -11v-3q13 -12 24 -19l11 -8q56 4 119 -15
q97 -6 126 37l2 3q89 31 93 37l10 -1l22 -15q19 -13 35 -41l-9 -22q-6 -9 -47 -34l-5 8l-1 -10q-31 -12 -78 -47l-3 3l-5 8l-2 -10q-4 -5 -25 -4l-5 9l-3 -4q4 -2 1 -7l-119 -1q-84 15 -105 11q-5 -7 -71 31l-13 -2q-13 0 -64 25l5 11l-10 -6q-32 24 -95 49v5l5 11l-11 -4
q-8 0 -20 22l6 10l-5 1q0 -5 -6 -5l-75 118q-37 93 -55 112q-13 1 -13 169q-5 0 -4 11l14 70q-2 154 -1 174q17 22 34 151q11 0 13 27l2 38l17 15q3 16 23 58l11 -5l-6 10q23 32 48 95h5l10 -5l-4 11q0 8 21 20l10 -6l1 5q-5 1 -5 7l114 75q90 36 109 54q0 13 163 14
q1 5 11 4l68 -15q149 4 168 3q22 -18 147 -35q0 -11 26 -12l36 -2q23 -27 43 -46q5 -4 12 -12q4 -3 7 -6h1l4 -4q32 -25 55 -26l-5 -11l11 6q39 -14 54 -63q1 -17 60 -74l-2 -38q6 -18 12 -47q0 -1 1 -2v-4q6 -27 12 -63q5 1 6 -9l-4 -62q27 -133 29 -150q-14 -22 -12 -136
q-11 -1 -8 -24l4 -33q-78 -81 -73 -121l-11 3v-2l6 -7q-2 -8 -5 -14v-8q0 -48 -119 -119l-27 5h-43q-3 -3 -7 -6h-6q-22 -2 -35 4z" />
    <glyph glyph-name="A" unicode="A" horiz-adv-x="1060" 
d="M497 1289h10q30 -36 35 -50q-6 0 -6 -6h6q0 6 5 6l33 -50q11 -25 22 -77q-6 0 -6 -6q20 -16 60 -177q12 0 22 -110q43 -58 43 -172q54 -89 54 -132v-17l-5 -11q25 0 49 -166q12 -16 38 -135q31 -24 92 -9v-5q6 0 6 5q81 -18 81 -82q-36 -73 -125 -73q-28 11 -43 11
q-138 -5 -201 -5q-33 5 -33 17q6 0 6 5l-11 -5q-27 19 -27 44v39q0 39 48 39l63 10q18 0 3 72v45q-10 90 -120 82q0 5 -5 5l-65 -5q-90 5 -176 5q-47 -59 -47 -137v-22q-40 -55 81 -89v-5l11 5q31 0 38 -77q0 -18 -60 -39l-32 5q-7 0 -71 -16q-18 11 -32 11h-22
q-75 0 -164 -2q-13 13 -49 84v5q0 56 158 57q32 40 49 111q11 0 11 27l-5 27q22 55 22 62q14 57 14 66q44 169 55 238q44 174 55 259q11 0 16 45q0 4 -5 33q38 88 38 154q17 6 17 34v44q20 17 69 28zM373 549q13 -71 98 -71q10 -6 49 -11q106 13 120 27l5 28v11
q-22 55 -27 177q-15 0 -33 132q-36 52 -54 144q-10 0 -27 11q-31 0 -60 -155q-16 -146 -43 -182q0 -59 -28 -111z" />
    <glyph glyph-name="B" unicode="B" horiz-adv-x="1172" 
d="M522 1281q59 -22 76 -22h11q18 0 76 11q48 -11 65 -11v5q18 -10 109 -21q104 -167 136 -201v-11l-6 -55q6 -56 6 -92q-11 -27 -27 -103q-55 -69 -55 -92q0 -17 27 -49l-5 -11h5q0 5 6 5q15 -27 32 -27l-5 -11l11 6q49 -37 81 -115q16 0 27 -21q0 -6 -5 -6l5 -11
q-27 -25 -27 -54q0 -42 -5 -152q-43 -35 -71 -114q-54 -27 -54 -65v-11q16 -20 16 -38v-22q0 -33 -27 -33q-58 49 -98 49h-38q-70 -16 -76 -16t-60 11h-32l-11 5q0 -9 -60 -27q-5 0 -32 22q-16 0 -109 -6l-54 17h-33l-65 -27q-43 16 -104 27q0 11 -97 16q-5 22 -11 22
q8 49 27 49q37 -6 60 -6q60 17 60 22q21 -11 59 -11h11q36 0 54 60h6q0 5 -6 5q55 80 55 93q0 8 -38 32q-22 40 -22 44q27 72 27 98q0 31 -38 38q-27 36 -27 97q0 12 16 55q-16 102 -16 136q0 92 33 168h-6q-11 0 -11 5l44 82q-60 92 -60 119q-22 11 -22 22h-5q0 -6 -6 -16
q-52 22 -76 22h-5q-53 -11 -60 -11v11l6 11h-11v27q0 5 -6 5q0 30 109 33q2 7 49 21v6h5q23 -22 44 -22h32q54 16 60 16q88 -5 98 -5zM598 1129q-185 0 -185 -28q-16 -51 -16 -65v-11q0 -64 38 -87q27 0 33 -81q7 -11 16 -11v-16q0 -73 130 -114h49q136 40 136 59
q2 11 54 49q38 31 38 147q-5 11 -5 16q5 0 5 6q-20 0 -38 38q-11 9 -87 16q-119 34 -119 71q5 0 5 5h-5q0 -5 -6 -5q0 4 -16 16zM392 411q27 -94 27 -108q-13 0 -17 -27q0 -136 55 -136l136 -22l38 11q46 -6 70 -6q30 32 196 93q32 65 43 130l-38 136q-16 4 -43 65
q-10 6 -22 6h-16q-6 0 -6 -6q-23 0 -49 49q-7 6 -59 11q-50 -11 -55 -11q-14 0 -125 11q-53 0 -119 -125q-16 -59 -16 -71zM1141 314q11 -2 11 -11v-11l-21 -6l-6 11q0 8 16 17zM1027 64h11q11 -2 11 -11l-16 -11l-6 11v11z" />
    <glyph glyph-name="C" unicode="C" horiz-adv-x="1091" 
d="M557 1291q33 -32 119 -43q0 -11 28 -11h10q39 11 44 11q11 -2 11 -11v-5l-17 -22v-16q19 -33 49 -33h6q7 0 43 71q25 43 33 43h11q58 0 103 -119q-16 -78 -22 -153q-7 0 -22 -32v-6q0 -15 44 -125q0 -157 -49 -157q-12 -16 -38 -16q-44 0 -92 114v11q0 4 5 32
q0 69 -65 158q0 56 -54 76q-15 0 -22 54q0 23 -131 38q-10 -46 -38 -60h-16q-23 22 -43 22q-11 0 -44 -43q-65 -15 -65 -60q-65 -46 -65 -103q-27 -32 -27 -104l-11 6q5 -11 5 -16q-11 -15 -22 -98q0 -10 11 -87l-5 -38q0 -149 60 -256q0 -71 54 -97q26 -16 60 -77l27 -5
q29 34 49 44q119 0 119 -55q9 -22 44 -22q146 71 146 163q39 26 39 115q7 0 43 65q69 11 81 11q40 0 66 -93q-17 -25 -22 -130q-38 -47 -38 -65q5 -11 5 -17l-43 -32q-6 -71 -22 -71q-34 11 -43 11q-15 0 -38 -49l-109 -22q-37 -15 -125 -38q-53 22 -65 22h-11l-38 -5
q-8 12 -136 65q-70 61 -71 87q-119 124 -119 190q0 10 -22 71q6 46 6 76l-22 70l5 33q-16 27 -16 43q22 59 22 104v32q32 122 38 218q43 39 43 108q12 0 55 65q13 0 87 87q41 11 141 55l38 -6q0 13 38 27z" />
    <glyph glyph-name="D" unicode="D" horiz-adv-x="1123" 
d="M392 1266l48 -11l49 5q50 -11 55 -11q10 0 38 11q37 -5 59 -5l22 5q46 -22 180 -51q20 -10 65 -72q45 0 87 -135q41 -16 54 -200q7 0 16 -67q-5 -124 -5 -163q0 -8 5 -78q-21 -52 -38 -179q-76 -86 -98 -151q-24 -8 -70 -67q-60 0 -141 -73l-28 -6l-27 6q-28 -6 -54 -6
h-6q-14 0 -32 12q-234 -9 -234 -28q-88 5 -174 39q-13 0 -70 -28q-33 0 -49 39q0 118 108 118q55 -6 82 -6q103 8 103 68q0 72 -11 72l11 45l-11 55q17 49 17 56q-11 53 -11 84v17q0 14 11 50q0 13 -6 62q0 19 6 28q-6 61 -6 106v117q0 39 11 106q0 124 -103 124h-82
l-38 -12q-54 34 -54 62q0 34 43 51l77 -6q193 17 201 17zM457 1103v-140q0 -55 -11 -55l11 -235q-22 -75 -22 -96q9 -44 16 -44l-5 -39v-39q0 -7 22 -90q0 -22 -17 -94v-46q0 -61 71 -61q13 0 81 -6q67 45 131 45q0 8 81 73q0 18 44 67q0 16 65 174l11 55q-6 29 -6 56
q17 28 17 45q-11 44 -17 162q6 11 6 17q-4 54 -44 106l6 12v16q0 67 -54 67q0 41 -234 106l5 11q-5 0 -5 -5l-38 5h-11q-103 -15 -103 -67z" />
    <glyph glyph-name="E" unicode="E" 
d="M848 1277q109 -14 141 -44q27 -33 27 -38q-5 0 -5 -6q22 0 65 -253v-33q-7 -66 -43 -66h-6q-18 0 -60 49q-16 0 -32 22v12l32 93v17q0 55 -141 104q0 5 -11 5q-35 -11 -49 -11h-11q-43 0 -70 50q-49 -5 -87 -33q-17 0 -103 5q-18 -11 -33 -11q0 6 -5 6v-6q5 0 5 -5
q-35 0 -43 -49v-6q10 -80 10 -89v-5q0 -7 -10 -60v-12l10 -38q-5 -69 -5 -82q48 -55 92 -55h22q6 0 6 5l10 -5h28q76 16 76 66q0 109 43 109q9 23 38 23q25 0 49 -77q-16 -188 -16 -193q11 -23 16 -181q0 -32 -54 -77h-22q-54 27 -54 143q-26 71 -87 71h-33q-98 0 -98 -60
v-50q0 -54 -5 -132q17 -50 22 -50q-17 -36 -17 -60q0 -71 44 -71q6 0 43 33q147 -24 147 -45q42 -16 60 -16l27 5q0 -5 5 -5v11h38v-11h6q0 9 49 28q13 18 32 71q11 0 17 33q0 6 -6 17q6 38 6 60v44q35 66 70 66h49v-11l11 6q42 -16 49 -116q-27 -114 -49 -308
q-16 -22 -22 -22l-38 6q-36 -28 -54 -28h-11l5 11q-10 -6 -16 -6q-29 17 -49 17l-38 -22h-11q-34 0 -97 22q-50 -28 -77 -28q-228 14 -228 39l-54 -22q-6 0 -54 17l-22 -50h-27q-27 16 -27 33h-28q-21 -17 -32 -17q-88 0 -114 45v16q0 88 130 104h5q52 -11 82 -11h5
q38 0 38 45l-10 192q21 43 21 55q0 37 -5 67q5 107 16 154q-11 60 -16 60l5 10v34l-5 33q16 33 16 105v142q0 88 -70 88q-34 5 -77 5q-21 0 -76 -27q-54 24 -54 77v17q20 39 109 39q63 0 146 -6q38 6 60 6q45 -6 55 -11l331 22q50 -17 60 -17q38 17 38 22z" />
    <glyph glyph-name="F" unicode="F" horiz-adv-x="1068" 
d="M272 1263q29 -11 60 -11q18 0 114 6l54 -6l11 6l33 -6h5q18 0 76 11q169 -5 217 -5q136 -19 136 -84q16 -29 16 -55l-5 -50q15 -41 22 -45l-6 -28v-28q0 -13 17 -50q-6 -77 -6 -133v-16l-22 -29q-66 20 -103 78v6q11 22 11 62q-16 75 -22 166q-8 0 -21 22q5 0 5 6h-5v-6
q-13 0 -55 56q-66 5 -97 28q-272 0 -272 -56q-11 -20 -11 -45l27 -55q-16 -82 -27 -189q-11 0 -11 -34q0 -40 109 -60q114 18 114 60q14 19 27 139q19 23 54 23h17q8 0 21 -23v-39q0 -5 11 -43q-11 -45 -11 -57q17 -49 17 -66q-22 -30 -22 -50q22 -71 22 -78q-6 -29 -6 -33
q11 -42 11 -78v-17q0 -45 -65 -83h-5q-77 26 -77 111q-27 122 -59 122q-30 -5 -49 -5h-11q-11 0 -11 11q-87 -38 -87 -100l16 -61l-16 -100q11 -19 11 -34v-5q-11 -54 -11 -61v-17q33 -43 38 -55v-6l-5 -11h5q0 6 6 6q0 -23 173 -34q57 -23 71 -44q-74 -61 -92 -61l-11 5
q-15 0 -49 -17q-63 23 -98 23q-12 0 -43 -39h-17q-20 21 -119 33q-51 -33 -65 -33q-31 39 -71 39h-22q-24 -23 -38 -23q-22 9 -32 28v45q39 52 97 72q56 -6 87 -6q23 0 60 39l-5 12q21 97 21 127q0 39 -10 39q21 43 21 55q0 43 -5 78q16 70 22 367q5 0 5 5q-22 0 -22 57v16
q0 9 22 61q0 111 -49 111q0 4 -98 17l-87 -6q-27 50 -27 67v6q32 45 49 50h125q12 0 22 5z" />
    <glyph glyph-name="G" unicode="G" horiz-adv-x="1089" 
d="M521 1269q37 -11 65 -11l27 5q47 -10 147 -71h49q26 0 70 27q65 -16 65 -66q-21 -72 -32 -72q0 -5 5 -5q-11 -18 -11 -39q0 -24 11 -50q-5 0 -5 -6q22 0 22 -50q-11 -34 -11 -44l5 -55l-32 -17q-71 0 -71 45q-107 237 -158 237q-74 39 -87 39q-64 -10 -76 -10
q-47 5 -54 5q-24 0 -33 -44q-20 -18 -49 -29l-27 6q-17 0 -43 -55q-82 -43 -82 -210q-9 0 -11 -89h6q-11 -25 -22 -104q19 -45 22 -45q-11 -26 -11 -55q0 -25 44 -66v-6l-6 -22q22 -34 27 -99q48 -51 76 -111h17l32 6q45 -29 103 -29q16 0 93 29q50 -18 65 -29
q136 106 136 183q0 73 -76 105q-26 0 -33 44q0 50 65 72q93 -11 125 -11q36 11 49 11q142 -26 142 -44q5 -10 10 -49q-8 -67 -81 -67q-49 0 -49 -110l-16 -134q0 -9 16 -49q0 -78 -87 -111h-5q-32 44 -136 44v6q-27 -6 -27 -22l10 -39l-21 -16h-60q-35 0 -60 39q-9 5 -22 5
h-10l-33 -5q-9 5 -27 5l-38 -17q-147 32 -147 78q-81 29 -81 55q0 27 -28 50q-56 133 -65 133q-21 0 -32 132v23q0 12 5 21q-11 22 -11 61q17 59 17 83q0 7 -6 17q6 223 60 259q0 13 60 127q0 26 87 106q0 20 141 89h38q23 0 60 16z" />
    <glyph glyph-name="H" unicode="H" horiz-adv-x="1227" 
d="M877 1282q3 0 60 -16h22q43 0 114 5q108 -32 108 -60q0 -20 -54 -38q0 6 -5 6q0 -30 -115 -38q0 -9 -21 -71q0 -45 16 -92q-7 -99 -16 -147q9 0 21 -38l-10 -163l5 -65q-5 -37 -5 -60q10 -38 10 -65v-33q0 -31 -5 -38q0 -190 54 -190q125 -43 125 -103q0 -29 -32 -49h-71
q-8 0 -27 33q-13 0 -60 -33q-80 0 -119 -33q-148 33 -163 49l-11 22q36 103 60 103q38 -11 59 -11q35 0 60 82h6q-11 24 -11 70q1 66 11 66q-16 61 -22 136q0 9 32 48q0 49 -49 49q-98 8 -124 22l-39 -5h-27q-12 0 -21 5l-142 -22l-32 6h-11q-47 0 -54 -93q0 -12 -6 -21
l22 -98q0 -3 -16 -60v-5q16 -49 16 -55q-11 -53 -11 -59q0 -39 119 -71q0 -6 6 -6q0 6 5 6q38 -33 38 -60v-16q0 -50 -54 -71q-90 17 -109 17h-5q-23 -17 -44 -17q-4 0 -43 6l-11 -6q-65 17 -92 17h-71q-43 0 -43 65q11 36 43 59q9 0 65 33q60 0 60 27q6 83 6 152v76
q0 11 10 55q-10 65 -10 103v71q0 19 16 65q-4 38 -11 38q11 29 11 60q-7 129 -16 152l5 11v11q-7 135 -43 135q-9 0 -49 11q-60 -5 -104 -5q-24 10 -27 22v5q55 47 55 60q0 32 43 32l38 -5q44 18 44 22q37 -6 59 -6q26 0 55 6q29 -6 49 -6l32 6q29 -6 54 -6h6q12 0 22 6
q65 -19 65 -60v-6q-7 -48 -49 -48q0 5 -6 5q0 -17 -114 -27q0 -8 -16 -93q11 -55 11 -76l-5 -49q0 -10 10 -43q-5 -30 -5 -43q0 -82 71 -82q35 11 48 11q11 -11 115 -22q10 0 38 11l87 -11q116 0 135 65v6l11 -6v6l-32 43q5 47 5 71q-11 0 -11 11l6 49q0 16 -17 16v22
q49 0 49 49v5q0 23 -54 71l-65 -6l-55 17q-4 0 -32 -6q0 11 -11 11v27q66 76 109 76zM1073 250h16q8 0 16 -17v-10q-8 0 -21 -11q-25 10 -28 21q0 8 17 17z" />
    <glyph glyph-name="I" unicode="I" horiz-adv-x="1008" 
d="M271 1289q81 -11 196 -11h22q22 0 59 5q33 -8 109 -21q79 5 87 5q41 -11 49 -11l38 16q109 -20 109 -59q12 0 16 -71q-20 -11 -44 -11q-11 0 -59 6l-82 -22q-46 5 -76 5h-43q-82 0 -82 -32v-11q11 -50 11 -55q-5 -56 -5 -65q5 -38 5 -43q-11 -39 -11 -60q11 -48 11 -65
q-11 -34 -11 -55q0 -97 54 -97q11 -18 11 -27q-13 -104 -54 -104l-5 -11v-38q0 -7 16 -16q22 11 32 11q0 -11 17 -11v-27q0 -24 11 -44q-6 -10 -6 -16h-16q-20 71 -38 71q-8 0 -16 -17v-10q0 -5 10 -44v-5q0 -7 -10 -60q10 -49 10 -71v-38l6 -11q-11 -1 -11 -10h5v5
q18 -11 33 -11q29 18 92 33q99 -17 191 -65q43 -7 43 -44v-22q0 -20 -27 -49q5 0 5 -5q-13 -11 -16 -11l-11 6v-6q6 0 6 -5h-6q-18 0 -76 11q-28 -17 -54 -17q-3 0 -55 17q-32 -11 -32 -17l-11 6h-87q-12 0 -22 -6q-40 15 -179 27q-47 -21 -54 -21q-32 21 -55 21
q-37 0 -87 -32q-108 0 -108 70v17q0 32 38 70q0 38 32 38l60 -16q73 16 152 27l55 -11q0 8 16 17q-6 48 -6 59q10 68 22 82h-11v16l-5 33q10 24 16 125q11 0 11 22q-33 59 -38 87q22 46 22 59v6l-11 38q11 137 38 331v17q0 33 -54 43q-54 49 -142 49q-53 -33 -70 -33h-6
q-49 11 -70 11q-6 0 -6 -5l-22 11l22 119q29 33 152 33zM619 751h5q0 -25 17 -65l-17 -11h-5q-4 0 -16 16q5 60 16 60zM652 300q17 0 27 -49q-6 -16 -11 -16q-27 7 -27 38v11z" />
    <glyph glyph-name="J" unicode="J" horiz-adv-x="1003" 
d="M783 1305q111 -22 173 -22h17q40 0 60 -87q27 -22 27 -49v-5q0 -11 -11 -11q-67 0 -103 49h-33q-32 -44 -43 -44q-28 8 -28 22q-59 -16 -59 -60q-6 -64 -6 -92l16 -98q-40 -14 -43 -27v-11q11 -53 11 -60v-87l-27 -70q21 0 21 -120q-10 -18 -10 -32v-44l-6 -11
q49 -22 49 -76l-22 -38q0 -8 6 -87q0 -54 -38 -54q-44 0 -44 -16v-6q17 -48 17 -54v-6q-54 -32 -55 -43q0 -11 -11 -11q-19 0 -49 5q-21 -5 -21 -38h5q-18 -38 -54 -38q-19 0 -71 33l-38 -5q-67 21 -87 21q-5 -16 -32 -16q-33 65 -44 65h-27q-33 -18 -33 -22q-77 46 -81 60
q-54 101 -54 169v114h10q0 5 -5 5q0 54 92 120h38q74 0 136 -114q0 -9 -11 -49q11 -23 11 -33l-11 -5q0 5 -5 5q-82 -50 -82 -71v-5q0 -54 136 -136h49q118 0 196 109q16 0 32 60l-16 103q11 73 11 109l-6 27q6 19 6 21q-6 146 -16 239q5 18 10 191q0 16 -10 43q5 30 5 49
v22q0 39 -196 65l-65 -5q-16 20 -16 48v17q9 54 49 54q5 0 43 -5q44 3 44 11l11 -6h5q20 0 98 27q13 -9 141 -16q33 22 44 22z" />
    <glyph glyph-name="K" unicode="K" horiz-adv-x="1156" 
d="M149 1275q54 -11 108 -11q23 0 60 5q46 -17 60 -17q22 12 32 12q20 -9 87 -17q33 -21 33 -28v-5q0 -39 -38 -39q-30 5 -44 5q-92 -69 -92 -128l6 -39q-9 -16 -17 -99q6 -11 6 -18q-6 0 -6 -5q17 0 38 -33q-11 -70 -11 -117q7 -33 49 -33h11q29 6 55 78q10 0 27 28
q74 45 103 139q33 8 114 188q0 17 -71 39q-16 20 -16 39q0 30 49 45l38 -6q50 17 76 17q46 -23 60 -23q10 6 16 6l44 -17q37 6 59 6h6q47 0 70 -39v-38q0 -12 -76 -29q-70 17 -97 17q-22 0 -38 -56q-14 0 -49 -89q-66 -15 -66 -72q-18 -39 -59 -66q-5 -29 -44 -56l-5 -12
q5 -30 5 -44q-43 -58 -43 -77v-7q0 -20 98 -155q7 0 32 -78q4 -19 98 -110q17 -113 87 -196q0 -13 174 -32l32 -51q0 -38 -114 -38q0 5 -5 5q0 -14 -55 -28q-57 28 -70 28h-11l-38 -5q0 5 -5 5q0 -17 -60 -22q-101 27 -109 39q-5 9 -5 22v11q0 7 43 45q11 0 54 -11
q25 0 38 32q0 15 -38 78q-19 29 -32 78q-71 38 -71 134q-12 23 -65 66q-15 56 -54 56h-38q-30 0 -44 -117q-54 -85 -54 -111q0 -5 5 -45q-11 -20 -11 -44v-6q0 -81 93 -100q58 0 70 -78q0 -41 -81 -44h-27q-30 0 -82 17h-16q-86 -22 -98 -22q-10 5 -16 5q-11 0 -120 5
q-27 31 -27 51q0 41 125 61q60 33 60 117q11 0 11 55q0 30 -17 123q6 37 6 61v83l-6 34q10 21 17 139q-17 69 -17 89q0 48 11 138l-5 56l5 39q0 100 -81 100q-120 8 -120 33l-5 11q0 42 98 73z" />
    <glyph glyph-name="L" unicode="L" horiz-adv-x="1198" 
d="M403 1279l11 -5h27q22 0 60 5q24 -11 70 -11h65q11 0 55 11q95 -33 114 -72v-11q-9 -23 -38 -23h-11q-12 0 -22 5l-76 -22q-6 0 -49 17q-125 0 -125 -34q0 -28 -16 -106q22 -42 22 -95q0 -3 -22 -67q0 -10 22 -51q-11 -150 -11 -246q-11 -37 -11 -50q0 -21 16 -129
l-5 -57l11 -90l-11 -33q11 0 22 -78q18 -28 81 -28h33v-11q42 21 49 28q0 -7 5 -7q0 28 87 62q33 0 33 -16q5 0 5 5q33 -22 60 -22h22q87 26 87 90q10 90 10 95q0 6 -5 16q5 12 5 18l-16 56l27 89l-5 56q0 27 32 50q29 0 55 -55l-6 -28v-6q27 -77 44 -191v-5l-11 -101
q11 -35 16 -101l-5 -28q5 -29 5 -33q0 -45 -108 -45l-11 -17q-94 4 -147 28h-5q-16 0 -77 -23h-10l5 12l-11 -5q-19 5 -22 5q-68 -12 -108 -23q-38 18 -82 23l-49 -12q-20 8 -49 28h-16q-101 -21 -185 -21h-114q-19 0 -49 -7q-17 0 -27 46q19 95 76 95l44 -35q30 27 119 41
q36 -18 49 -18q33 0 33 85q-11 55 -11 101l11 39v72q0 58 5 90q0 15 -16 213q16 97 16 123v34q0 23 -11 44q6 47 6 78q0 7 -22 62q6 20 6 23q-22 67 -82 67h-22q-10 0 -38 -39h-5q-27 0 -27 11l-66 -6h-32q-27 13 -27 29q0 44 16 44l-5 11q27 51 59 51q14 0 44 -6
q103 6 174 6q16 -6 16 -11z" />
    <glyph glyph-name="M" unicode="M" horiz-adv-x="1248" 
d="M879 1275l27 -5h108q87 0 131 -62q0 -45 -103 -89v-45q0 -14 -17 -67v-50q0 -29 -11 -68q22 -44 22 -61q-11 -36 -11 -45l6 -28l-6 -34q11 -46 11 -78q0 -47 -11 -78q9 -31 17 -95q-6 -54 -6 -106v-11q33 -77 33 -101q48 -30 70 -113l11 -78q0 -35 -27 -50h-5
q-5 0 -44 11h-27q-60 -21 -158 -21q0 20 -76 32q-10 19 -10 34q0 49 86 79q6 43 28 111v17q0 31 -6 79q16 27 16 44v11q0 15 -21 73q21 52 21 62q-27 68 -27 72q29 22 38 163q6 3 6 50q-17 52 -17 78l17 45q-17 35 -33 101q-9 5 -22 5q-76 -68 -76 -84q6 -75 6 -112h5
q-1 -20 -43 -78q0 -110 -38 -269q-25 -41 -38 -117q-36 -33 -71 -33h-38q-48 0 -76 134q5 0 5 6q-17 1 -38 134q-49 112 -49 173h6q-6 42 -44 135q11 20 11 44v28q0 24 -43 56q-22 38 -22 45h-27q-12 0 -22 -45q0 -14 44 -45v-17q-22 -33 -33 -78l5 -28q-5 -81 -5 -89
q11 -21 11 -45v-67q11 -40 16 -112l-5 -11l5 -39q-11 -96 -11 -118q17 -30 17 -50q-11 -131 -11 -151q30 -70 49 -95l11 5q32 0 32 -94q-10 -26 -22 -29h-10q-13 0 -22 6q-33 -16 -131 -34q-157 21 -157 50l-6 23q0 46 104 106q8 0 21 140q-5 58 -5 67q11 59 11 90
q0 12 -6 61q10 62 22 62l-22 56l11 106l-11 202q11 20 11 44v117q0 51 -98 51q-13 18 -21 50q0 45 76 45q0 9 114 17q65 -23 130 -34q76 -82 76 -190q50 -52 71 -174q43 -62 43 -128q22 -17 33 -17q5 0 33 23q0 -6 5 -6l-5 11q27 48 27 85h-6l33 89q0 13 54 157v72q0 6 -5 6
q0 35 81 95q28 12 28 16z" />
    <glyph glyph-name="N" unicode="N" horiz-adv-x="1153" 
d="M760 1272q61 0 130 -16q45 5 55 10l135 -32q25 -11 55 -11l-16 -82q-31 -16 -44 -16q-51 6 -98 6q-38 -40 -49 -87q6 -21 38 -55v-11q-32 -27 -32 -48q27 -60 27 -104q-22 -42 -22 -130l6 -11q-22 -38 -22 -54q27 -128 27 -147v-65q0 -22 -11 -71q6 -54 6 -81l-6 -22
q17 -46 17 -98q0 -6 -6 -16q6 -10 6 -22v-11q-22 -24 -22 -38v-43q0 -17 -114 -22q-47 0 -93 147q-11 17 -11 27q6 0 6 5q-16 0 -38 93q-23 28 -55 119q6 0 6 6q-22 6 -27 49l5 32q0 11 -43 65q0 27 -49 98q0 38 -44 109q0 35 -76 147q0 33 -27 43q-32 -75 -38 -174
q16 -40 16 -49q-5 -98 -5 -130l16 -147q-11 -35 -11 -43q6 0 6 -6q-6 0 -6 -5q28 -14 28 -44q-16 -18 -28 -114q26 -70 142 -70q49 -33 49 -66v-16q0 -65 -98 -65q-44 -11 -55 -11h-16l-54 16h-38q-24 0 -71 -21q-157 20 -157 48v28q19 103 59 103q47 -22 60 -22h6
q14 2 59 71l-5 38v22q0 19 11 92q-6 10 -6 16q6 0 6 6q-10 0 -22 65q11 197 11 223q-3 65 -11 65q11 33 11 43l-11 93q5 68 5 81q-10 174 -54 174q-109 9 -109 71q-5 0 -5 16v11q25 16 38 16l11 -5q0 14 87 21h65q108 -24 125 -32q71 -74 71 -114q39 -104 65 -142
q39 -29 98 -195l-6 -11q14 0 22 -82q10 -1 16 -32q-5 0 -5 -6q19 0 32 -86q-5 0 -5 -6h5q0 6 6 6q63 -120 98 -120h5q27 12 27 54q0 17 -11 44q6 55 6 87v16q0 20 -6 49q6 10 6 16q-8 111 -11 114q5 11 5 17q0 43 -5 103q5 59 5 103q0 76 -49 76h-10l-33 -5q-46 16 -60 16
l-49 -5q-11 17 -11 27q10 11 17 87l32 16q30 -5 44 -5z" />
    <glyph glyph-name="O" unicode="O" horiz-adv-x="1082" 
d="M595 1303q146 -20 146 -50q26 0 109 -72q30 -2 65 -83q-5 0 -5 -6q11 0 43 -61q8 0 17 -16q-6 0 -6 -5q15 0 38 -89q6 0 11 -17q0 -33 11 -287l-6 -39q6 -30 6 -50q0 -11 -16 -77l10 -45l-38 -66q0 -92 -54 -133q0 -33 -65 -88q-61 -73 -98 -73h-38q-57 -30 -103 -71
q0 5 -6 5v-5q6 0 6 -6h-6q-19 0 -43 22h-71q-40 0 -43 17l-11 -5h-33q-19 15 -76 22l-76 71q-60 29 -60 78q-76 106 -76 144q-16 86 -16 105v28q0 55 5 132l-21 39v22q0 5 11 45q0 6 -6 55q11 20 11 44v83q20 27 54 116l-5 28q20 39 43 39q0 6 -5 6q0 7 81 110q0 17 11 17
l-5 10q15 13 60 22q0 41 152 57v-7zM182 833v-34q-17 -25 -17 -39l6 -38l-6 -55l17 -28v-6q0 -6 -17 -55q36 -59 49 -150q25 -7 33 -88q19 -11 49 -83q22 0 81 -72q34 0 87 -61l125 -28q103 26 152 84q61 34 87 116l22 22q0 -6 5 -6q-5 11 -5 16q16 29 16 45v39q33 40 33 50
q5 10 5 16q-5 38 -5 61q0 22 27 100q-18 161 -54 216h-6l6 55v34q0 9 -44 93q6 0 6 5h-6q0 -5 -5 -5q-43 100 -98 100q-34 13 -130 39q0 8 -22 21h-76q-59 0 -114 -66q-46 -8 -114 -132q-50 0 -87 -166zM850 794l5 -11q0 -12 -10 -12h-6v12q2 11 11 11z" />
    <glyph glyph-name="P" unicode="P" horiz-adv-x="1144" 
d="M524 1337h5q11 -2 11 -11v-23q-19 -5 -22 -5l-5 12v16q2 11 11 11zM274 1260l32 -6q17 0 38 6q36 -6 71 -6l33 6q21 -6 119 -11l185 11q84 0 201 -100q0 -20 49 -50q71 -202 76 -276q-5 -29 -5 -49v-110q-11 -18 -60 -34q-43 -61 -125 -61l-22 -60q0 -6 -16 -11
q-48 39 -109 39q0 5 -32 16q-59 -39 -77 -39h-5q-16 0 -81 39h-11q-14 0 -55 -66h-5q27 -70 27 -111q-16 -27 -22 -143q0 -15 49 -55h22l27 21h49q5 0 5 6q70 -41 120 -54q11 -1 43 -50q0 -83 -70 -106l-49 6q-11 0 -38 -11l-54 44h-6q-30 -28 -141 -39q-48 23 -71 23h-22
q-36 0 -86 -33h-6q-22 0 -43 33q-55 0 -55 27q-9 6 -21 6h-17q0 -23 -32 -33q-23 8 -33 27v6q0 63 76 88q14 10 131 17q0 8 16 16q29 -5 49 -5q14 0 27 116q-11 110 -11 199q0 22 11 55q-6 72 -6 115v12q0 54 6 132q-11 21 -11 61v27q0 85 11 161q-11 82 -38 82h-11l-54 -16
q-18 10 -131 22h-21q-6 0 -6 -6q-20 0 -38 33v12q0 15 22 66q54 -5 81 -5h11q69 0 109 16zM426 1110h5q-10 -22 -10 -32q0 -21 32 -111v-61q-12 -50 -16 -143q12 -105 65 -105q53 -11 60 -11q5 0 43 5q48 -5 60 -5q38 0 141 60q55 0 76 78q44 12 60 193v5q-57 83 -70 84
l-33 -6q-68 61 -98 61h-22q-43 -12 -54 -12h-5q-25 39 -169 39l-11 6q-20 0 -54 -45z" />
    <glyph glyph-name="Q" unicode="Q" horiz-adv-x="1145" 
d="M508 1303l11 -6h146q142 -22 174 -72q54 -28 55 -40q-6 0 -6 -6l11 6q74 -43 109 -179q20 -47 38 -147q5 0 5 -10q-5 -121 -5 -169q21 -34 21 -50q-16 -32 -16 -46l6 -23q-11 -55 -33 -83l11 -45q-55 -120 -55 -129l6 -29q0 -13 -33 -61q-8 -27 -65 -56q0 -8 -81 -84
l-6 -28v-39q11 -62 55 -62q27 0 76 67q5 0 16 5q125 -31 125 -67q0 -37 -49 -95q-17 -5 -60 -73q-20 -10 -54 -17q-11 5 -16 5q-15 0 -66 -11q-146 27 -146 68q-27 16 -49 134q-49 40 -125 40q-109 35 -152 55q-27 32 -66 46q-24 29 -27 44q6 0 6 6h-6q0 -6 -5 -6
q0 12 -87 102q-44 52 -65 292q-6 0 -6 28l11 -7l-5 12l5 29q-5 0 -5 5q5 0 5 5q-16 0 -16 29q11 36 11 50v73q0 75 38 124l-6 28l44 129q34 0 54 72q34 18 71 113q113 67 201 67v6zM252 814l6 -67v-6q0 -33 -22 -111q37 -143 44 -253q26 -74 43 -90h5q23 0 77 57q0 22 97 44
q239 -62 239 -106l-5 -12h5v5q18 -10 33 -10q31 0 82 100q27 110 27 129l11 -5l-6 12l16 78q-10 48 -10 56q5 90 16 106q-27 71 -54 230q0 7 -60 62q-47 82 -82 123q-5 0 -5 -5q-22 0 -120 39q-100 -39 -103 -39q-27 0 -60 -56q-55 -45 -119 -151q0 -113 -44 -113
q-5 -17 -11 -17zM502 169v-11q0 -9 17 -17h5q52 0 82 45v6q0 73 -38 73q-40 0 -66 -96z" />
    <glyph glyph-name="R" unicode="R" horiz-adv-x="1124" 
d="M652 1289q73 -45 82 -45q10 6 16 6q133 -111 185 -200q-5 0 -5 -5h5q0 5 5 5q38 -56 38 -88q-21 -51 -43 -61q0 6 -5 6l5 -12l-16 -22v-21q0 -23 32 -56v-12h-32q-95 -41 -109 -99q-38 -50 -38 -67q36 -87 65 -127q3 -33 49 -72q0 -6 5 -17l-16 -39q11 -160 44 -160
q57 -45 141 -45q50 -24 71 -105v-27q0 -8 -17 -17h-16q-31 0 -87 -6l-54 28q-21 0 -114 -10q-87 51 -87 155q-17 29 -22 116q-7 0 -22 94q-12 0 -27 133q-55 89 -87 89q-74 -40 -103 -40q-77 0 -114 -94q0 -64 -38 -105v-16q0 -19 5 -29l-11 -60q32 -122 120 -122
q52 0 70 -44q-5 0 -5 -6h5q0 6 6 6v-17q0 -20 -44 -72q0 -22 -16 -22h-11l-43 50h-6q-5 0 -43 -11l-38 5q-27 -16 -44 -16h-5l-71 22q-123 -28 -136 -28q-32 37 -32 50q20 89 32 89h82q78 0 87 94v22q0 77 -60 128v5q0 12 38 83v11l-32 67l48 60v11l-5 50q0 37 22 183
q-6 29 -6 56v44q0 6 -5 6l5 11q0 13 -5 83q5 29 5 33q-16 55 -59 55q-19 0 -60 17q-10 -5 -22 -5q-38 16 -38 55q0 50 27 50q25 0 93 -23q53 0 201 23q29 -6 59 -6q0 10 33 22l11 -5h43q6 0 6 5q5 -5 65 -10q43 8 43 16zM337 1089l6 -32q-11 -23 -11 -62v-44q0 -44 -6 -117
q18 -77 44 -77h16q64 22 71 22l22 -5l86 16q25 -11 28 -22q-6 0 -6 -5l11 5q33 -22 49 -22q33 0 87 38q0 -5 5 -5v5q-5 0 -5 6q50 0 60 94q0 19 -17 39v39q0 22 28 72v5q-17 78 -49 78q-29 0 -33 17q5 0 5 5l-10 -5q-9 10 -71 28q0 6 -22 11q-22 -11 -87 -18q-45 29 -59 29
q-142 -40 -142 -78v-17z" />
    <glyph glyph-name="S" unicode="S" horiz-adv-x="1034" 
d="M451 1292q32 0 98 -6q30 6 43 6q59 0 196 -51h11q41 51 54 51q65 -35 65 -63q0 -82 -27 -198q17 0 33 -130q-9 -39 -44 -58h-22l6 12l-11 -5h-5l5 11l-11 -6q-35 0 -71 193q-17 55 -114 107q0 11 -27 12h-16q-12 0 -22 -5q-70 33 -130 33q-51 0 -158 -108
q-15 -25 -32 -107q0 -97 70 -153q44 -19 76 -52q-5 0 -5 -5l11 5q207 -27 304 -67q34 -24 120 -68q26 -25 59 -103q26 -30 55 -107l-6 -23q6 -67 6 -96q-38 -103 -76 -142q-28 -47 -28 -56l-10 5v-5h5q0 -34 -87 -51q0 -42 -196 -63q-25 0 -65 17q-55 -6 -87 -6h-32
q-11 0 -114 63q-10 5 -22 5h-16l-49 -62l-11 6v-12h-17q-54 0 -54 45l6 68q-6 51 -6 63q0 28 22 153q-11 37 -11 51v12q0 39 16 39l-5 12q18 10 27 10q60 -18 60 -67q0 -24 43 -68q64 -136 163 -136h6q38 12 43 12q9 -23 38 -23q83 0 201 73q0 9 22 17q0 -6 5 -6l-5 12
q38 37 54 79h-5q11 30 11 63l-6 22q11 23 11 34q0 71 -179 148l-82 -18q-72 46 -87 46h-59q-44 21 -44 34q-5 0 -5 -6q-32 0 -125 131q5 0 5 5q-32 0 -49 148q0 64 87 227q123 102 196 102z" />
    <glyph glyph-name="T" unicode="T" horiz-adv-x="1097" 
d="M762 1297h16q11 -2 11 -11q-6 0 -6 -6q6 0 6 6q143 0 185 -95q32 -14 32 -34q-27 -35 -27 -56q0 -18 22 -85q-16 -37 -16 -60l16 -57q0 -33 -11 -33l11 -119q0 -37 -87 -78q-54 0 -71 90q6 10 11 50q-4 39 -11 39l11 85q0 116 -81 191q-23 44 -93 44h-5q-41 0 -93 -106
q0 -12 11 -39q-5 -41 -5 -67l22 -141q0 -37 5 -56q-11 -21 -11 -45v-129q0 -38 -5 -67q5 -29 5 -67v-45q1 -32 16 -62l-5 -12q0 -139 43 -139h17l32 5q71 -20 71 -34l11 6h16q88 0 218 -128v-12q-35 -35 -71 -39h-16q-17 0 -60 28l5 11q-13 -5 -54 -11q-18 11 -33 11h-5
q-21 -34 -27 -34h-6q-11 0 -11 12v34q-8 0 -21 11q-29 -51 -60 -51q-41 12 -109 17q-35 -5 -70 -5h-33q-19 0 -65 16q-48 -28 -76 -28h-6q-10 0 -59 28q-33 -22 -44 -22q-15 0 -38 39v39q0 57 65 57q68 11 114 11h6q30 0 76 -6q27 0 49 73q0 13 -22 51q11 50 11 72v17
q0 6 -6 6l6 11v16q0 56 5 135l-5 11l11 39q-6 48 -6 79v79q11 81 11 90q-11 58 -11 78v28q0 18 22 78q-25 146 -65 146q-10 6 -22 6q-25 0 -81 -34q-110 0 -125 -146q27 -91 27 -168q0 -39 -44 -151l-11 -6h-21q-55 0 -55 45q11 18 11 34q0 26 -16 67q11 72 11 95
q-4 45 -11 45q16 48 16 67q0 13 -5 23q17 207 65 207q0 22 60 39q28 -11 43 -11q11 0 38 11q48 -6 55 -6q80 6 108 6q36 -11 49 -11h22q14 0 65 17l33 -17q37 11 65 11q6 0 16 -6q24 9 44 23zM691 372h11q11 -1 11 -11v-11q0 -5 -16 -18q-10 7 -22 7v16q0 8 16 17zM702 293
h5q0 -10 11 -10v-11q0 -9 -16 -18q-13 11 -22 11v7q0 8 22 21z" />
    <glyph glyph-name="U" unicode="U" horiz-adv-x="1158" 
d="M780 1277q37 -11 65 -11h16q44 0 114 5q16 -11 109 -16q71 -66 71 -94q-1 -8 -22 -29q-53 23 -65 23h-17q0 -24 -21 -72l-11 5q0 -5 5 -5l-5 -34q0 -32 5 -116q-9 -27 -21 -39l-28 5h-21v-5q0 -24 43 -50q11 -29 11 -61h-27q-6 0 -6 6q-27 0 -27 -50q11 -2 11 -11
q22 11 33 11l5 -11v-17q0 -30 -5 -78q32 -70 32 -82v-7q0 -36 -38 -71q-32 -72 -32 -95q5 -84 5 -116q0 -17 -11 -44q27 -47 27 -61v-28q0 -47 -97 -89q-8 -16 -82 -38q0 -10 -27 -17q-46 5 -76 5l-33 -5q-25 11 -54 11q-56 -22 -76 -22h-33q-114 27 -114 71q-10 14 -87 39
q-38 25 -38 84q-27 55 -27 155q5 11 5 16q0 30 -5 50l11 333q-6 22 -6 100v6q0 6 -16 55q22 70 22 89q-11 39 -16 127q-29 30 -77 33l-27 -5q-50 18 -59 50q0 51 70 89l27 -6h6q65 0 65 11q134 -16 266 -22v-11l11 5q27 -13 54 -55v-17q0 -7 -32 -28q-37 6 -60 6
q-35 -41 -98 -61l-5 -27v-6l5 -33q-11 -23 -11 -39l6 -39q0 -6 -6 -17q6 -49 6 -60q0 -75 -11 -211q11 -39 11 -67q-11 -35 -11 -50l16 -61l-5 -50q5 -10 5 -16h38l-5 -11l11 6h5v-18q-5 -16 -32 -16h-17l-5 -22q0 -54 43 -94q6 0 55 -94q65 -28 65 -34q10 5 16 5
q13 0 82 -44h11q10 5 16 5v34q-22 0 -33 23v5q0 20 65 38q7 0 38 -32h6q24 0 43 32q66 40 66 112q0 35 -6 110q16 56 16 78q-8 44 -16 44q11 44 11 94v50q0 45 -5 116q16 29 16 45q-11 53 -16 133q5 21 5 45q0 83 -82 83q-15 0 -48 56q-60 0 -60 77q28 13 125 39zM1013 323
q15 -2 22 -28q-7 -27 -16 -27h-6q-16 5 -16 33q8 22 16 22z" />
    <glyph glyph-name="V" unicode="V" horiz-adv-x="1021" 
d="M716 1292q10 0 60 -11q105 6 136 6q49 -11 71 -11h32q23 -11 38 -39l-11 -44q6 -11 6 -17q-11 -26 -22 -28h-11q-6 0 -59 11q-60 0 -60 -39q0 -6 5 -16l-5 -22l5 -50q0 -18 -54 -39q-22 -35 -22 -50v-78q-27 -98 -27 -127l5 -39l-54 -67q0 -68 -43 -127q0 -15 5 -45
q0 -5 -43 -172q16 -40 32 -100q-14 -23 -27 -77q-65 -50 -65 -123l-11 -5h-44q-125 23 -125 123q0 4 6 32q-38 46 -38 134q0 28 -27 116q0 27 -11 61l5 50q-5 11 -5 17q5 0 5 5h-5q0 -5 -6 -5q-35 48 -54 155q-16 81 -22 144q-20 21 -49 161l6 39q0 24 -38 78q0 71 -114 71
q-76 58 -76 73l16 22l38 -6h5q102 23 136 23q88 -7 109 -17l43 12q88 0 93 -50v-7q0 -5 -65 -50h-60q-8 0 -16 -21l5 -29q-5 0 -5 -5h5q0 5 5 5q0 -62 55 -182q-7 -49 -11 -62q56 -81 76 -160q-6 -38 -6 -61q16 -24 28 -128q38 -94 76 -94h5q42 0 54 94q66 150 93 317
q-13 0 -16 38q43 36 43 151q11 21 16 21q-17 116 -65 116q0 10 -71 39l-5 29q5 44 44 44z" />
    <glyph glyph-name="W" unicode="W" horiz-adv-x="1135" 
d="M993 1300q114 -24 114 -89q0 -28 -76 -56q-38 -104 -38 -150l5 -56l-38 -139q0 -5 5 -45q-19 0 -38 -239q-11 0 -16 -112q-13 -27 -22 -27l6 -12v-34q-38 -149 -38 -238q-19 -13 -38 -90q-39 -11 -60 -11q-90 16 -92 172q-8 0 -17 79l6 50q-17 53 -22 156q-12 21 -33 100
q-32 29 -38 29q-38 -31 -38 -140q-28 -47 -49 -206q-21 -28 -38 -195q-32 -50 -54 -50q-92 26 -92 122q0 76 -33 190q0 61 -27 89l5 39v139l-16 78l5 39q0 14 -38 72q0 6 -5 17q5 30 5 51v16q-21 62 -21 78v5q0 6 10 45q-38 195 -65 195q-7 0 -49 50v23q0 27 153 32
q0 7 10 7q37 0 55 -28v-11l-27 -107q21 -399 70 -440v-11q-16 -30 -16 -50q38 -61 49 -156l11 -5h16q22 0 60 206q21 51 27 128q39 167 81 195q11 0 11 6q52 0 93 -101q0 -101 32 -178q-5 0 -5 -6h11v-17q18 -189 54 -189q0 -5 5 -5h11q27 0 55 240q12 0 38 183q9 0 32 106
v78q0 27 -54 72q-22 32 -22 44q23 57 60 57q68 -6 81 -6q39 0 39 11zM552 671v-17l6 -28h5q27 17 27 39q-5 11 -5 17h-22q-11 -2 -11 -11z" />
    <glyph glyph-name="X" unicode="X" horiz-adv-x="1148" 
d="M171 1277h5q15 -12 55 -27q96 5 136 16l48 -28q30 5 44 5q32 -11 32 -43v-12q-81 -35 -81 -43v-40q65 -81 125 -226q42 -39 76 -39q44 0 76 128q22 27 27 27q0 -6 6 -6v6q-6 0 -6 5q11 4 60 122q5 0 5 23q0 38 -76 55l-10 22q10 24 21 28h6q11 0 54 -18q78 5 114 29
q212 -30 212 -56v-5q0 -23 -125 -39q-39 11 -43 11h-22v-11l-11 5l5 -11q-5 -42 -70 -121q-6 -45 -55 -84v-49q-28 -52 -86 -99q0 -61 -22 -61l5 -11l-16 -84q11 -17 11 -27q-6 0 -6 -5h6q0 5 5 5q42 -30 76 -149q28 -58 55 -88q-6 0 -6 -7q29 0 49 -99q32 -16 54 -83
q56 -44 158 -44q39 -29 54 -83q-13 -38 -38 -44q-32 22 -59 22q-9 0 -38 -44h-22l-76 16q-50 -11 -60 -11q-60 9 -60 28v6l6 11q-6 0 -6 -6l-27 6l-11 -6q0 6 -5 6q0 -24 -38 -45q-28 0 -87 72v12q65 66 103 66q27 0 27 66v50q0 44 -43 55q-33 46 -33 111q-32 49 -38 49h-11
q-48 -6 -92 -61q-33 -42 -33 -61v-66q0 -11 -65 -44l-11 -66q21 -56 65 -56q22 -22 33 -61q-4 -18 -33 -32l-38 5l-27 -5q-30 5 -43 5q-54 0 -98 -39h-11q-44 11 -54 11l-33 -5q-45 27 -119 39q-22 16 -22 32q0 78 98 78q0 32 119 67q38 51 38 60q9 34 44 72q0 25 54 66
q20 46 71 116q0 33 70 89q6 10 6 22v23q-38 92 -60 193q-48 53 -54 100q-13 19 -33 110q-60 27 -60 77q-11 17 -136 33q-21 24 -21 44v29q0 7 16 16z" />
    <glyph glyph-name="Y" unicode="Y" horiz-adv-x="1060" 
d="M293 1277q38 -18 38 -22l54 6h38q53 0 71 -55q0 -25 -82 -92q-11 -18 -11 -33q33 -97 60 -97q0 -75 33 -93q14 0 32 -65q14 -11 22 -11l-5 -11q43 0 76 65q34 0 59 87q25 11 55 131q-25 49 -103 98q-6 9 -6 21v6q0 15 103 60q8 0 60 -11q45 11 136 16q18 -11 33 -11h32
q6 0 6 6q87 0 87 -77q0 -35 -60 -59q0 -8 -17 -17q-4 0 -32 6q-57 0 -109 -93q-7 0 -32 -70q-28 -19 -28 -49l6 -11q-8 -26 -38 -49q-17 -68 -71 -114q0 -86 -76 -190v-6q11 -62 11 -152v-16q0 -5 5 -5q-5 -9 -16 -93q0 -27 27 -43h27q17 -55 71 -55q49 10 49 17l27 -6h44
q59 -45 59 -98q0 -13 -48 -48q0 -36 -49 -44h-22l-65 11q-44 0 -104 -5q-82 0 -97 32q-10 6 -22 6q-5 0 -33 -22h-54q-25 22 -49 22q-22 -49 -54 -49h-11q-23 21 -87 32l-11 22q23 114 76 114h6q23 0 119 -11q65 24 65 55q8 48 17 48q-6 74 -6 109v65q0 44 6 104
q-11 17 -11 27q5 0 5 5h-5q0 -5 -6 -5q-9 11 -16 92q-71 71 -71 103q-35 70 -43 136q-65 82 -76 82v38q0 38 -65 103l-11 -5q-56 21 -87 21l-22 -5q-54 14 -54 54q0 82 43 82q39 -22 49 -22q16 0 158 38zM537 1168h6q10 -1 10 -11v-5q0 -11 -10 -11h-6q-11 0 -11 11v5
q2 11 11 11zM684 321h5q11 -2 11 -11v-6q0 -10 -11 -10q-7 0 -16 16q2 11 11 11zM999 92h16v-16h-16v16z" />
    <glyph glyph-name="Z" unicode="Z" horiz-adv-x="1013" 
d="M313 1272q31 0 38 -6q46 6 76 6h71q51 0 103 -6q30 6 43 6q87 -6 104 -6l76 6q65 -25 65 -68q0 -94 -65 -94q-15 -62 -33 -90q-15 0 -32 -66q-24 -7 -44 -67q-53 -58 -92 -78q0 -42 -60 -101q-29 -41 -44 -117q-62 0 -103 -134q-60 -51 -60 -95q-42 -53 -76 -117
q-27 -14 -27 -45v-21q0 -22 141 -39q44 0 163 27q34 -11 55 -11q121 8 125 62q16 95 54 250q0 84 54 84h28q38 -27 38 -61q-11 -70 -11 -85q5 -57 5 -66q-16 -111 -21 -234q-23 -73 -147 -73q0 -11 -33 -11q-8 0 -87 6l-11 -6q-19 11 -43 11h-16l-11 -5q0 5 -6 5v-5
q6 0 6 -6q-6 0 -17 -6l-21 12q-152 -8 -152 -23q-6 0 -38 28q-53 -11 -60 -11q-117 18 -163 33q-11 50 -11 90q31 61 92 139q35 41 87 140q34 34 49 83q94 92 114 174q40 0 87 105q49 47 49 62q9 22 22 22q0 6 -6 6q24 88 71 111q71 58 71 111l27 39v23q0 11 -11 11
q-14 0 -38 -16h-16q-26 0 -87 39h-6q-13 0 -49 -17q-46 6 -76 6h-5q-12 0 -55 -18q-29 6 -48 6h-22q-49 0 -49 -117q-33 -24 -44 -73q7 -9 11 -55q-2 -15 -49 -56v-17q0 -12 6 -22q-11 -33 -22 -33q-22 0 -38 139q-5 0 -5 17q21 135 32 279q0 25 147 39z" />
    <glyph glyph-name="bracketleft" unicode="[" horiz-adv-x="561" 
d="M311 -138q7 -3 11 -3q6 0 21 7q20 2 24 2h5q11 0 20 8q23 -8 12 -8h51l12 4q0 -5 22 -7q37 0 50 -81q-6 -38 -17 -58q-34 -3 -50 -10h-5q-12 14 -15 14q-36 -10 -43 -10q-17 6 -19 6l-49 -20h-19q-17 0 -27 -8q-16 8 -33 22l-66 -4q-2 -1 -4 -3q-11 0 -19 6q-8 2 -16 7
q0 4 3 4v3l-5 -3h-2q0 8 -5 18q0 5 2 10l-5 -2q0 7 -7 21v17q4 16 9 26l-4 40q6 22 6 38q0 9 -11 49q0 45 25 112l-42 25v12q0 14 44 64q0 17 1 25q-16 36 -28 101v5q2 9 13 18q-4 20 -8 43q0 5 11 44q0 38 -17 108q6 0 6 7q-6 0 -6 4h6l-6 12v11q0 47 6 65q-6 47 -6 83
q0 44 15 415q12 0 16 132l-5 11q5 9 5 21v11q0 12 -16 49q12 55 16 55q-10 18 -10 32v6q0 44 110 66v-6q6 0 6 6q49 -5 61 -17l4 -1q6 0 20 7q18 -7 23 -7h4q10 0 19 7q22 -7 40 -7h18l11 4q0 -6 20 -8q35 0 48 -60q-6 -50 -16 -68q-32 -4 -47 -11h-5q-12 14 -14 14
q-34 -10 -40 -10q14 7 12 7q-51 8 -75 -3h-18q-8 0 -14 -1l-19 -76l16 -59l-5 -39l11 -22h-6l6 -11l-9 -400q-24 -27 -28 -43q6 -17 28 -61q0 -76 -38 -141v-27q0 -12 27 -77q-11 -41 -11 -49q11 -23 11 -34q-33 -42 -33 -81q2 -9 27 -43v-7q0 -20 -5 -48q5 -10 5 -28
q-9 -9 -18 -16q35 -138 35 -181z" />
    <glyph glyph-name="backslash" unicode="\" horiz-adv-x="569" 
d="M52 1341q34 -64 46 -71q0 -46 27 -71l-2 -17l-5 -9q13 0 15 -34q12 -101 29 -101q19 -80 38 -101l-6 -8l11 4q-1 -7 35 -72q40 -26 39 -41l-7 -26q-8 -86 59 -126q-2 -27 21 -89q23 0 16 -72q30 -37 30 -42l44 -84q-4 0 -17 -38h4q18 -45 39 -46q22 -68 20 -93
q-2 -23 55 -67q32 -81 53 -194q-3 -38 -42 -39l-13 -8q-15 0 -33 102q-57 43 -56 49q0 5 6 13q-6 32 -6 38l-56 152l-21 29q-20 84 -56 161q4 0 5 4q-14 0 -12 25q-50 71 -46 118q-25 47 -39 97q-42 52 -42 105q-29 55 -43 93q-32 76 -30 97q-25 45 -38 97q-45 27 -42 50
q2 28 -8 50l-49 38l1 9q3 29 12 29q-19 73 26 94q5 0 5 -5q18 13 34 13h-47q17 0 46 -13z" />
    <glyph glyph-name="bracketright" unicode="]" horiz-adv-x="607" 
d="M262 -92q0 42 35 178q-9 7 -18 16q0 17 5 27q-5 28 -5 48v6q25 34 27 43q0 38 -33 80q0 11 11 33q0 8 -11 49q27 64 27 75v27q-38 64 -38 139q22 43 28 60q-4 16 -28 43l-9 394l6 11h-6l11 22l-5 38l16 58l-19 65q-6 1 -14 1h-18q-24 11 -75 3q-2 0 12 -7q-6 0 -40 10
q-2 0 -14 -14h-5q-15 7 -47 11q-10 18 -16 77q13 59 48 59q20 2 20 8l11 -4h18q18 0 40 7q9 -7 19 -7h4q5 0 23 7q14 -7 20 -7l4 1q12 12 61 17q0 -6 6 -6v6q110 -2 110 -45v-6q0 -14 -10 -32q4 0 16 -74q-16 -36 -16 -48v-11q0 -12 5 -21l-5 -10q4 -131 16 -131
q15 -365 15 -409q0 -35 -6 -82q6 -17 6 -64v-11l-6 -11h6q0 -4 -6 -4q0 -7 6 -7q-17 -69 -17 -107q11 -38 11 -43q-4 -23 -8 -43q11 -8 13 -17v-5q-12 -64 -28 -100q1 -8 1 -24q44 -50 44 -64v-11l-42 -25q25 -66 25 -110q-11 -40 -11 -49q0 -16 6 -37l-4 -40q5 -10 9 -25
v-17q-7 -14 -7 -21l-5 2q2 -5 2 -10q-5 -10 -5 -17h-2l-5 3v-3q3 0 3 -4q-8 -5 -16 -7q-8 -6 -19 -6q-2 2 -4 3l-66 4q-17 -14 -33 -22q-10 8 -27 8h-19l-49 20q-2 0 -19 -6q-7 0 -43 10q-3 0 -15 -14h-5q-16 7 -50 10q-11 19 -17 57q13 80 50 80q22 2 22 7l12 -4h51
q-11 0 12 8q9 -8 20 -8h5q4 0 24 -2q15 -7 21 -7q4 0 11 3z" />
    <glyph glyph-name="asciicircum" unicode="^" horiz-adv-x="1014" 
d="M552 1469h16q38 -72 66 -174q70 -50 70 -97q0 -54 33 -115v-5l-6 -49q3 -19 76 -114q0 -100 71 -179l11 -22q-7 -76 -76 -76h-6q-5 10 -5 16h-33q-32 0 -32 44q-8 0 -17 38l6 11q-33 63 -54 184q-34 40 -55 104q-23 13 -32 38q5 48 5 59q-22 67 -27 120q-11 0 -11 16h-38
q0 -27 -81 -244q0 -61 -39 -76q-48 -117 -48 -201q5 -11 5 -17l-16 -27v-38q-15 0 -33 -16q-71 0 -71 38q-7 0 -21 43l27 82h5q0 5 -5 5q22 31 22 38l11 -5v5h-6q27 31 38 169q18 27 60 152q71 153 71 212q0 26 65 65q28 16 54 16z" />
    <glyph glyph-name="underscore" unicode="_" horiz-adv-x="980" 
d="M565 -26h27q61 -10 174 -14q67 10 90 10q136 0 136 -29q19 0 23 -90q-29 -66 -70 -66q-25 20 -108 33h-9q-23 0 -57 -33h-13q-31 19 -48 19h-18q-58 0 -108 -9q0 7 -19 18h-23l-15 -9h-14q-25 18 -42 18l-43 -4q-8 4 -13 4q-33 -15 -33 -18q-45 18 -89 18h-10v-4l5 -33
h-5q-18 28 -42 28l-10 -4q-64 19 -98 19q-35 0 -66 -43q-9 0 -9 10q4 8 4 14q-4 19 -23 19q-10 0 -33 -39h-10q-10 0 -23 81q0 90 48 90q19 0 41 10q124 -6 207 -6h70q5 0 5 6q9 -6 14 -6q30 0 70 -4q25 0 137 14z" />
    <glyph glyph-name="grave" unicode="`" horiz-adv-x="872" 
d="M378 1391q33 0 114 -93q26 -62 49 -87q0 -5 -5 -5v-5q5 0 5 5q5 0 33 -33q45 -82 81 -119l-5 -11l11 5v-5q0 -47 -44 -65h-27q0 13 -27 27q-67 33 -82 71q-73 0 -98 70q-81 0 -81 71q-60 0 -103 65v11l11 65q0 38 141 38q18 0 27 -5z" />
    <glyph glyph-name="a" unicode="a" horiz-adv-x="1078" 
d="M410 942q50 -16 65 -16q40 16 49 16q41 -33 125 -44q48 -18 92 -73q71 0 82 -94q16 -21 16 -50v-16q0 -98 -11 -151q17 -37 17 -50q0 -35 -6 -144q13 -39 16 -39q-10 -35 -10 -45l27 -95q20 -16 38 -16h16q48 0 65 60q0 25 76 29q11 -17 17 -39q0 -42 -65 -78
q-35 -32 -44 -72l-22 -12q-130 0 -130 34q0 39 -98 67q-15 0 -65 -45q-98 -28 -103 -28q0 6 -6 6v-6q6 0 6 -5q0 -27 -152 -39q-18 11 -33 11q-8 0 -49 -11q-72 36 -136 50q-108 114 -108 172v11q0 73 76 179q8 0 43 38l11 -6v6q-6 0 -6 6q41 0 60 6q0 -6 6 -6v6q-6 0 -6 5
q31 28 55 28h38q22 0 43 -6q42 0 217 67h11l38 -5l82 50l5 21q0 59 -32 107q0 13 11 49q-56 9 -82 29l-27 -6h-11q-30 33 -49 33q-43 -17 -54 -17q-48 34 -65 34q-119 -38 -125 -50q-15 -26 -44 -167q-36 -17 -49 -17q-103 16 -103 51v66q0 23 38 62q0 45 114 100
q41 23 109 27q0 6 27 22zM606 436l-28 5q-38 -39 -114 -39q-17 0 -43 -44h-11q-62 17 -71 17q-130 -19 -130 -44l-16 -67q0 -82 32 -106q-5 0 -5 -5l11 5q23 -16 135 -56l39 6q34 -15 76 -22q0 17 135 67q36 40 93 77q36 29 54 122v12q-12 89 -38 89h-5q-37 -12 -114 -17z
" />
    <glyph glyph-name="b" unicode="b" horiz-adv-x="1084" 
d="M211 1269q108 -22 108 -108q0 -39 17 -87q-11 -41 -11 -49q32 -76 38 -131q5 0 5 6l11 -6h27l11 6q0 -6 6 -6q0 33 92 38q0 6 38 17q228 -17 228 -60q104 -39 104 -103q5 0 5 5q81 0 81 -103q38 -51 38 -76q0 -7 -5 -55q22 -50 22 -92v-11q-11 -38 -11 -43q5 -68 5 -71
l-16 -11h-5q-17 0 -33 76h-16q-22 0 -22 -92q27 -16 27 -33q-17 -152 -54 -152q-13 0 -109 -65l-27 -5l-11 5q-72 -27 -76 -27l-27 5q-118 -19 -136 -32h-22q-40 0 -43 16q5 0 5 5l-11 -5q-47 43 -97 43q-49 -10 -66 -10q-38 0 -38 16l-11 -6q-32 37 -32 82q0 43 5 114
q-5 30 -5 44l5 38l-5 38q5 52 5 103q0 13 -5 43q11 73 11 120l-6 11q11 30 17 261l-6 27q11 51 11 65q0 19 -16 60q21 47 21 54q-7 27 -38 27h-59q-30 0 -76 6q-9 -6 -33 -6q-38 12 -38 49q11 54 43 54q44 -3 44 -10l38 10l33 -5q57 16 65 16zM336 596q0 -14 16 -60
q-16 -47 -16 -55q13 -153 49 -222q105 -109 130 -109h44q34 0 86 33l-10 38q8 21 16 21h22q0 -16 21 -27q42 0 93 120q-6 38 -6 43q38 34 38 169v27l-49 76q-10 16 -21 81q5 0 5 6h-5q0 -6 -6 -6q-5 22 -70 44q0 46 -33 60l-11 -6h-16q-5 0 -44 11h-21q-24 -13 -71 -71
q-69 0 -92 -119q-49 -22 -49 -54z" />
    <glyph glyph-name="c" unicode="c" horiz-adv-x="1014" 
d="M529 961l54 -16q29 5 33 5q86 -32 141 -65q48 0 87 -81l-5 -11h5v5q65 -30 65 -87q11 0 11 -27q-25 -131 -60 -157q0 5 -5 5q0 -18 -46 -3q0 -8 -44 -27q-28 3 -87 63q6 0 6 5q-22 0 -22 38v103q0 29 -73 60h-11q-44 0 -71 6q-154 0 -201 -71q-81 -68 -98 -163
q11 -35 11 -38q-11 -20 -11 -44v-16q0 -5 6 -5l-6 -11q0 -120 142 -261q15 0 92 -38h11q190 16 190 43q74 28 76 49q0 44 82 66q0 -6 5 -6v6q-5 0 -5 5q17 16 27 16q49 -12 49 -27q-6 0 -6 -5l11 5q42 -16 49 -27q0 -56 -22 -92l-49 -49h-5l-130 -55q-22 0 -71 -38
q-61 0 -120 -21q-43 10 -54 10h-87q-15 0 -76 22h-11l-16 -11q-9 0 -49 60q-78 55 -82 76q-92 182 -92 228q5 30 5 49v22q0 42 -5 76q5 147 38 147q16 87 54 87q54 76 60 76q36 3 60 49q53 32 119 32q64 29 131 38z" />
    <glyph glyph-name="d" unicode="d" horiz-adv-x="998" 
d="M501 1260q267 -14 267 -39l38 -54v-39q0 -18 -11 -77q0 -9 5 -67q-11 -47 -11 -60q17 -50 17 -66q0 -84 -11 -194q5 -29 5 -55q0 -9 -11 -34l6 -32q-6 -133 -6 -211q0 -39 11 -66q-11 -72 -11 -99q0 -33 109 -33q31 0 92 -72v-11q-17 -38 -48 -50l-38 23h-6
q-19 0 -54 -28h-6q-9 0 -49 16q-33 -22 -54 -22q-49 11 -49 50l6 11q-26 45 -49 45q-72 -51 -93 -72q-121 11 -130 11l-33 -28l-27 -6q-136 23 -136 50q-119 79 -119 160q0 11 -38 188q6 265 43 265q0 -5 6 -5l-6 11q22 115 98 165q58 61 136 61l125 33q39 -7 185 -77
q26 0 32 61q11 0 11 43q0 12 -11 77q17 38 17 61q0 66 -164 66q-17 -11 -32 -11q-82 17 -82 67q0 26 76 44zM431 802h-16q-46 0 -104 -50q-37 -38 -59 -88q-52 0 -66 -199l-5 -77q18 -39 49 -160q25 -8 87 -72q42 -28 54 -28q45 10 152 17q2 18 87 49q71 188 71 304
q0 21 -38 149q-19 105 -65 105q-27 3 -77 66l-27 6h-21q-22 -9 -22 -22z" />
    <glyph glyph-name="e" unicode="e" horiz-adv-x="928" 
d="M512 932q19 -16 98 -23q44 -30 65 -61q-5 0 -5 -6q10 6 16 6q29 -9 71 -61q108 -61 108 -275q0 -55 -92 -84l-27 5q-67 0 -120 -39q-38 0 -43 -5q-22 11 -38 11l-38 -22q-36 11 -49 11q-12 0 -60 -6q-57 27 -103 29q-55 -12 -55 -39q-24 8 -24 -26q-17 -28 24 -81
q28 -107 98 -107q16 -16 98 -39q0 -8 22 -16q53 0 141 33q34 0 65 62q10 0 65 39q0 -5 6 -5v5q-6 0 -6 6l28 16q0 -6 5 -6v12h44q32 -18 32 -61v-12q0 -53 -81 -84q-28 -37 -55 -51l-11 7v-7q6 0 6 -5q-37 -16 -136 -39h-16l-11 5v-11h-33q-78 18 -201 18q-29 31 -92 60
q0 17 -82 113q-36 59 -59 201v168q23 114 43 157q49 47 65 95q139 112 337 112zM514 764q-29 1 -29 12q-100 -11 -121 -34q-100 6 -144 -125q-35 -116 75 -105q11 5 17 5q2 -11 12 -12l17 -2q69 -3 69 9q6 0 6 -6l29 4l29 -1l35 -9q39 14 97 18q4 7 98 23v6q0 16 -5 16
l30 17l-25 56q-11 65 -74 83v50q-36 19 -47 19q-14 1 -64 -25z" />
    <glyph glyph-name="f" unicode="f" horiz-adv-x="990" 
d="M658 1269q70 -21 179 -27q158 -86 158 -170q11 0 11 -50q-22 -36 -38 -93l-27 -6h-6q-26 0 -141 54l-6 40v66q0 12 -5 21q5 10 5 22l-5 28h-27q-28 -22 -33 -22q-46 5 -76 5q-119 -34 -119 -110v-5q0 -14 5 -45l-5 -32q0 -23 97 -55q55 -6 82 -6l11 6q31 0 49 -78v-5
q-11 0 -11 -11h-54q-7 0 -60 -11h-71q-56 0 -81 -60v-138q0 -20 5 -49l-16 -39q5 -72 16 -115q0 -11 -11 -39q0 -115 38 -115v-11q-11 -18 -11 -34v-54q17 -34 49 -34q49 17 65 17h44q136 -22 136 -60q5 -11 5 -17q0 -22 -27 -33l-11 5q-42 -2 -65 -22h-16q-39 28 -60 28
h-38q-40 0 -60 -6q-36 6 -71 6h-59q-60 -22 -66 -22q-21 8 -21 16q5 0 5 6l-11 -6q-34 11 -43 11q-23 0 -54 -11q-24 11 -77 11l-48 -27q-19 4 -33 33v6q0 52 54 65h6q5 0 5 -5l11 5h71l32 6q37 -17 60 -17q71 10 71 56l11 186q-7 9 -11 56q11 20 11 43v72q-17 150 -17 165
v44q0 32 -54 77h-16l-28 -21h-16q-6 0 -60 10l-21 -5q-22 0 -66 54v29q0 17 82 38q44 -6 54 -11q114 19 114 44v54q0 25 38 88q0 65 66 111l10 -5v5q-5 0 -5 6q58 15 92 60q14 6 55 11q0 -5 5 -5q0 21 49 21z" />
    <glyph glyph-name="g" unicode="g" horiz-adv-x="1107" 
d="M517 942q53 0 195 -49v-5q-5 0 -5 -6q5 0 5 6l38 -6h6q126 55 147 55h65q52 0 98 -87q10 -70 10 -93q-65 -5 -65 -43h-21l-55 49q-32 25 -32 32q-49 -14 -49 -97q0 -25 -6 -71l6 -27q-20 -169 -60 -169q0 -9 -87 -32q-67 -76 -82 -76q-8 0 -48 10l-71 -10q-75 43 -98 43
q-60 33 -70 33q-28 -17 -39 -17q0 6 -5 6v-6q5 0 5 -5q-25 0 -70 -60v-11q0 -40 38 -87q-6 0 -6 -5q11 0 33 -33q5 -5 65 -11l131 55l141 -11q20 11 43 11q218 -49 218 -76q57 -21 92 -76l-5 -11h5q0 5 6 5q32 -27 32 -152q0 -38 -22 -38l6 -11q-20 -60 -60 -87
q-17 0 -92 -43q-60 0 -76 -38q-11 -6 -17 -6q-30 17 -43 17q0 -10 -152 -17v-5q-201 7 -201 22l-11 -6q-12 15 -147 27q-29 26 -60 76q-43 31 -43 66q5 0 5 5q-16 0 -16 54v22q0 54 49 136q22 29 22 49q-55 61 -55 119q14 142 49 147l82 92v11q0 27 -27 82q2 85 54 206
q0 17 43 55q0 31 82 49q0 26 103 32q0 4 22 11zM332 659v-48q0 -76 120 -158q59 -16 108 -16q88 14 98 21q0 8 71 71l5 38v109q0 27 -43 70q0 71 -60 71q-32 16 -54 38h-17q-75 -8 -108 -43q-63 -31 -87 -98l-27 -33q-6 -9 -6 -22zM593 100q-46 5 -71 5v-5q-36 16 -60 16h-5
q-15 0 -33 -11l-86 6q-34 0 -71 -55q-26 -50 -65 -97v-11q0 -4 5 -33q-5 0 -5 -5q68 -82 136 -82q0 -23 103 -49v-5q5 0 5 5q20 -11 44 -11q288 23 288 44q130 40 130 70q0 25 44 71q10 18 10 27q0 27 -87 38q-59 82 -152 82q-45 22 -59 22h-17q-16 0 -54 -22z" />
    <glyph glyph-name="h" unicode="h" horiz-adv-x="1126" 
d="M303 1271q65 -30 65 -65q-5 0 -5 -6q9 0 27 -38l-6 -27q0 -36 -5 -168q19 -136 38 -136q10 -6 22 -6q51 0 108 71q34 16 49 16q0 -5 6 -5v5q-6 0 -6 6q33 18 33 21l27 -5q65 11 76 11q25 0 136 -65v-6q-5 0 -5 -5l10 5q22 -16 33 -16l-5 -11h5q0 5 6 5q70 -108 70 -244
q-11 -49 -11 -71v-49q0 -21 33 -81q-22 -44 -22 -60v-43q0 -20 6 -49q-17 -28 -17 -55v-10q0 -28 87 -33q50 -57 60 -87q-15 -60 -27 -60h-22q-15 0 -76 22h-60q-21 -16 -49 -16h-5q-26 0 -65 27q-9 5 -27 5h-66q-4 0 -32 -32h-11q-33 16 -33 87v5q26 16 38 16q13 0 22 -5
q109 28 109 76q0 24 21 109v5q0 105 6 185q-6 47 -6 125q-10 18 -10 27q5 48 5 54q0 39 -76 76q-14 28 -44 28q-25 0 -43 -33h-33q-108 -29 -108 -65q-28 -71 -60 -71q-32 -12 -87 -201q0 -16 5 -38q-5 -46 -5 -76q12 -108 22 -136q8 -32 146 -81q0 -13 17 -33
q0 -54 -55 -54l-38 16q-55 -5 -87 -5h-5q-38 10 -43 10h-17l-92 -38h-11q-124 28 -130 55v16q18 60 146 60q49 18 49 60q0 5 -5 16l5 27q-5 127 -22 169v5l22 76q-11 66 -16 76q11 52 11 65q0 17 -11 44q5 10 11 54q-11 46 -11 60l5 32q-5 39 -5 66q0 23 11 49
q-22 54 -27 92q10 20 10 43q0 60 -108 60q-87 34 -87 49q-6 22 -6 38q0 30 33 49q29 -5 33 -5q89 5 179 16z" />
    <glyph glyph-name="i" unicode="i" horiz-adv-x="915" 
d="M466 1286q71 0 158 -88v-6q-14 -20 -27 -110q-33 -67 -82 -67q0 -12 -87 -16q-87 33 -87 138q27 149 125 149zM374 938q152 0 152 -89l5 -11l-5 -55q16 -49 16 -82v-215q0 -72 6 -149q-6 -25 -6 -89q0 -104 60 -104q42 -6 92 -6h6q11 0 54 11q76 -14 76 -27l11 6
q31 -28 49 -50q-13 -56 -33 -77q-215 10 -260 27q-48 -6 -60 -6q-18 11 -33 11h-65q-59 0 -152 -38q-28 16 -54 16h-33q-54 -1 -54 -10q-109 25 -109 82q0 77 163 77q19 -5 54 -5l38 16l33 -5h5q76 0 76 155q7 0 11 32l-11 50q0 6 6 17q0 4 -6 33q6 69 6 83l-6 38
q17 47 17 66v33q0 110 -65 110q-10 7 -22 7l-54 -12l-39 5q-69 -5 -76 -11q-38 17 -38 50q11 45 22 61h-5q0 26 92 33q0 8 38 17q8 0 49 -11zM717 851h28q0 -14 14 -14v-35h-28q-17 0 -21 28q7 14 7 21zM765 -94q11 -5 16 -5v-6q0 -11 -10 -11h-17q-11 0 -11 11z" />
    <glyph glyph-name="j" unicode="j" horiz-adv-x="787" 
d="M494 1303q97 -28 97 -55l-5 -11h5q0 6 6 6q60 -64 60 -93q0 -17 -104 -190q-7 0 -16 -16v-11q0 -18 76 -38q24 -26 44 -114q-6 0 -6 -5q14 0 16 -28l-5 -32l5 -55q-16 -65 -16 -92q2 -33 11 -33q-7 -81 -16 -119q5 -99 5 -125l-22 -120l6 -27l-6 -38q0 -37 11 -125
q0 -22 -32 -114l5 -27q-24 -75 -141 -147q-11 0 -11 -5l-11 5h-5q-35 0 -66 -32h-10q-86 27 -104 27l-38 -11l-114 71q-18 40 -49 76q-18 4 -27 114q0 92 109 157q0 -5 5 -5v5q-5 0 -5 6q24 22 27 22h16q87 -6 87 -44q-5 0 -5 -5h5q0 5 6 5q49 -48 49 -76v-5q0 -28 -44 -115
q-5 -47 -5 -54q4 -23 59 -54v-6q47 41 93 55q20 82 60 97q27 56 27 142q5 0 5 16q0 20 -5 49q5 48 5 60q0 11 -5 60q5 42 5 86q-11 50 -11 55q0 3 6 70q0 13 -6 22q6 37 6 60v71q0 31 -6 86q11 28 11 39q-24 65 -49 65q-46 -6 -76 -6h-16q-22 0 -60 38q-30 0 -87 -32l-27 5
q-11 0 -76 -11q-44 9 -44 65v22q0 35 125 49q9 0 131 -22q10 0 60 11q47 -5 54 -5q49 0 49 38q0 7 -82 81q-43 85 -43 104v5q11 41 16 103l27 17l11 -6q14 0 49 44h6z" />
    <glyph glyph-name="k" unicode="k" horiz-adv-x="1182" 
d="M145 1263q11 0 55 -10q5 0 16 5l38 -5q14 0 65 10q62 0 76 -121v-88q0 -21 6 -50q-11 -28 -11 -44q11 -49 11 -72q-13 -146 -22 -199v-5q5 -11 5 -16q-5 0 -5 -6q16 -3 16 -44v-61q0 -33 33 -33h11q134 149 146 149q49 20 49 55v6l-16 116q0 54 81 54q126 12 163 12
q4 0 38 -12q55 12 66 12q49 -12 70 -12l22 7q82 -31 82 -84q0 -6 -55 -32q0 -8 -16 -18h-16q-11 0 -66 28q-163 -31 -163 -71l-87 -61q-13 -44 -27 -44q0 5 -5 5l5 -11q0 -22 -43 -77v-16q0 -15 43 -89q9 -25 71 -44q0 -2 5 -22q-7 0 -16 -17v-21q106 -188 168 -188
q20 -37 163 -45q29 -44 44 -60q-5 0 -5 -6h5q0 6 5 6q0 -3 6 -22q-36 -34 -103 -34q-6 -16 -33 -16q-11 0 -76 55q-14 -36 -27 -39q-11 0 -22 39h-16q-53 -10 -60 -10q-18 10 -33 10h-11q0 -29 -48 -39h-17q-98 23 -98 84q0 29 55 132v17q-20 47 -82 77l-5 10v6l11 66
q-27 55 -38 55h-6l-11 -5q0 5 -5 5v-5q5 0 5 -5q-28 -13 -54 -83q-98 -58 -98 -83q-5 -49 -5 -60l5 -56q11 0 33 -22q19 0 49 5q64 -49 70 -49v-17q0 -30 -32 -43q-22 10 -33 10l-87 -21q-37 11 -65 11h-11q-65 0 -147 -23q-92 40 -92 94q6 22 33 22h11q52 -11 59 -11
q104 33 104 105v17q0 55 -11 55q21 45 21 159q-5 128 -5 133q11 42 11 50q0 11 -16 93v17q0 13 21 56q-27 110 -27 159q11 20 11 50q0 29 -5 94q5 10 5 17q-2 16 -27 38q5 0 5 5l-11 -5q-27 12 -27 16l-38 -5h-11q-56 0 -103 50v21q24 39 76 39z" />
    <glyph glyph-name="l" unicode="l" horiz-adv-x="991" 
d="M448 1282q61 -17 92 -17h11v-10q5 0 5 5q44 -13 44 -71v-5q0 -24 -11 -44q11 -52 22 -157l-6 -38q6 -100 6 -125q-11 -50 -11 -54l5 -28l-5 -27l11 -185q-6 -68 -6 -81q0 -20 6 -49q-6 -67 -6 -130v-60q20 -71 71 -71q41 -11 76 -11h11q33 28 38 28q32 -10 125 -22
q76 0 76 -98q-8 -27 -38 -27q-7 0 -55 5l-48 -21q-56 15 -136 27q-10 0 -33 -11q-116 5 -136 22q-98 -6 -103 -11l-33 5q-190 -16 -244 -27q-92 7 -92 33v16q0 65 70 92q36 -11 49 -11q110 22 163 22h44q44 0 70 54q-5 56 -5 87v44l5 11q-14 0 -22 32q17 36 17 49v17
q-11 47 -17 157q6 20 6 49q-11 18 -11 33q11 43 11 54v43q0 44 5 115q-5 10 -5 16l5 22q-5 72 -5 119q-19 71 -92 71q-31 0 -60 5q-29 -5 -55 -5q-34 11 -43 11l-49 -6q-81 0 -125 71v11q57 65 103 65l93 -16q97 21 212 27zM902 467l11 -30l-16 -20h-22v39zM1044 467h5
q11 -4 11 -20v-30h-27l-33 11q-18 -20 -32 -20q-11 0 -11 20q2 19 11 19q28 -10 32 -10q27 30 44 30zM1180 447q10 -10 16 -10v-38h-22q-8 0 -16 29v9q12 0 22 10zM1125 437h17v-9q0 -20 -11 -20h-17v9q2 20 11 20z" />
    <glyph glyph-name="m" unicode="m" horiz-adv-x="1206" 
d="M461 935q116 0 141 -44q33 -33 55 -33l152 77q168 -14 168 -55q60 -49 60 -88q0 -27 5 -27l-5 -11v-39q0 -39 11 -61q-11 -37 -11 -66q11 -53 11 -61v-43q0 -24 -27 -160v-5q0 -155 127 -155l6 -28l22 -27v-22q0 -61 -123 -71q0 7 -27 27h-22q-11 0 -65 -33
q-36 -17 -49 -17q-28 0 -43 45q-6 0 -17 5q-37 -22 -43 -22q-33 6 -33 17q6 0 6 5q-163 -27 -174 -27q-47 22 -54 22q-28 0 -28 -11q-16 0 -32 32q5 94 22 94q0 -6 5 -6v6h-5q43 80 43 105l-5 11q21 108 21 127q0 32 -21 143q0 10 10 33q0 206 -70 220q0 6 -6 6
q0 -8 -49 -38l-32 -61q0 -39 -33 -39q-42 0 -60 -94q0 -41 -16 -88v-16q15 -26 27 -94q0 -7 -11 -171q17 -5 17 -11q39 17 49 17q21 -6 21 -27l-5 -50q11 -40 11 -61q-33 -62 -33 -77l-21 -10q-28 32 -49 32q-68 7 -104 23l-32 -5q-31 0 -65 48l-16 44q38 40 103 77v127
q0 32 -6 88q11 20 11 45v219q0 150 -65 150v5l-11 -5q-27 11 -27 38q0 55 136 55q20 0 92 -61q0 34 141 67q22 6 22 10zM689 611q0 -6 6 -6l-17 -39q6 -107 6 -143q-6 -49 -6 -61l11 -49q5 -10 5 -22q0 -13 -5 -22l16 -39q-11 -22 -11 -38q68 -50 98 -50q7 0 49 50
q34 0 60 121q0 23 11 66q-9 78 -16 78q16 35 21 197q0 103 -70 122q-62 0 -76 -34q0 -8 -44 -38q0 -17 -38 -82v-11z" />
    <glyph glyph-name="n" unicode="n" horiz-adv-x="1180" 
d="M716 940q34 -11 114 -17q71 -42 71 -108q8 0 49 -93q16 -5 16 -32q0 -10 -21 -49q10 -49 27 -49v-16q-27 -58 -27 -142q0 -68 -6 -168l11 -6h16l-16 -34q24 0 38 -33q44 10 44 -3q0 -16 86 -71q38 -34 38 -38v-5q-41 -60 -124 -60q0 -6 -6 -6q-29 6 -49 6l-27 -6
q-37 28 -54 28h-27q-4 0 -33 -33l-60 22l-27 -6q-37 17 -60 17h-16q-6 0 -6 -6q-17 11 -27 11v11q0 98 49 98q22 25 76 43q55 59 55 158q0 59 10 119q0 50 -43 120q11 34 11 43q-18 68 -38 114q-20 0 -71 38q-6 0 -16 6q-67 -54 -114 -71q-87 -77 -87 -108q0 -40 -44 -60
l-10 5l5 -11q-38 -51 -38 -114v-16l5 -38h-5l16 -44q9 6 -41 0v32q0 8 17 17q8 0 21 -22v-38q11 -39 11 -43q-11 -36 -11 -49q68 -49 150 -92l16 -27q-18 -87 -65 -87l-38 5q-43 -22 -60 -22q-62 22 -81 22q-96 -10 -114 -22q-104 0 -131 55v16q0 15 49 103q53 -11 60 -11
q44 19 65 55v43q0 6 -5 6q16 70 16 97v191q0 12 -5 21q10 32 16 71l-11 49l16 65q-14 36 -32 44h-6q-26 0 -43 -28q-10 -5 -22 -5q-102 50 -103 65v22q0 36 114 43q41 -5 54 -10q2 10 11 10h6q108 -21 108 -70q18 -65 38 -65l38 16q0 -6 6 -6v6q-6 0 -6 5q9 0 71 65
q110 66 119 66q40 0 87 11zM1361 764h5q17 -5 17 -32v-11q0 -7 -28 -27l-11 5q6 65 17 65zM1094 362q22 -8 22 -16q-5 -16 -33 -16q-10 0 -10 11v5q0 8 21 16z" />
    <glyph glyph-name="o" unicode="o" horiz-adv-x="945" 
d="M447 940q10 -6 16 -6l76 6q88 -29 98 -29l-5 -10l11 5q45 -39 92 -39q16 -21 16 -34q-5 0 -5 -5q18 0 43 -73q60 -30 60 -94q27 -25 27 -67l-5 -34q0 -13 16 -67v-11q-11 -40 -11 -44v-84q-37 -188 -130 -273q-76 -39 -103 -46l-38 7q-81 -39 -125 -39q-14 0 -49 -23h-6
l-130 50q-15 39 -87 56q-39 46 -60 95q-8 0 -65 129v5q0 24 11 44q-18 79 -27 89q30 233 59 247q38 62 60 110q190 135 261 135zM463 794q0 -17 -130 -83q-13 -28 -44 -50q0 5 -5 5l5 -11q-54 -57 -54 -117q-16 -51 -16 -84l11 -34q-6 0 -6 -5q22 0 22 -78q-6 -30 -6 -45
q28 -71 125 -140q9 0 77 -21q38 5 43 5l49 -5q75 0 130 55q8 0 44 46q16 0 16 10q-5 0 -5 6q10 0 21 117q17 12 17 39v62l5 33l-60 128q0 56 -38 56q0 5 -11 5l6 12h-6q0 -5 -5 -5q-29 49 -65 49v6l5 11h-5q0 -6 -6 -6q0 8 -32 34h-22l-54 -6v11h-6z" />
    <glyph glyph-name="p" unicode="p" horiz-adv-x="1012" 
d="M579 925q126 -11 157 -11q109 -81 109 -106q0 -21 71 -117q27 -43 27 -145q-6 -36 -6 -72v-44q0 -39 17 -85q-38 -83 -38 -105q0 -17 -33 -73q0 -43 -65 -67q0 6 -6 6q0 -13 -76 -40q0 7 -5 7v-7q5 0 5 -5q-36 -27 -54 -27h-71q-19 0 -54 -17q-35 0 -130 33
q-55 -22 -55 -67q-5 -29 -5 -55q24 -117 43 -117q30 -6 49 -6h66q43 -29 43 -33q-5 0 -5 -6l10 6q28 -16 28 -34q-21 -45 -44 -45l-38 23q-12 0 -38 -33h-5q-14 0 -66 16q-36 -28 -54 -28h-11q-33 33 -54 33h-11q-120 0 -120 -44q-19 -6 -21 -6q-25 23 -93 29l-21 27v17
q8 17 87 50q0 14 21 17q8 0 49 -12q41 0 60 96q9 0 22 39q0 4 -22 61q11 194 11 317q0 67 -16 123q10 60 10 106l-5 89q5 23 5 39q-31 72 -38 123q-31 17 -54 17l-76 -7q-54 64 -54 73v23q30 22 152 33q49 -11 70 -11h28q5 0 5 6q26 0 43 -56q20 -11 49 -11l66 55
q89 28 141 28zM400 691q0 5 -6 5v-5q6 0 6 -5q-24 0 -66 -112l22 -67q-11 -38 -11 -66v-96q0 -11 60 -117q43 -64 130 -105h11q127 0 180 55q43 32 54 56h5q0 6 -5 6q20 0 49 222q-11 37 -11 51v72q-38 41 -38 78v17l5 11q-9 0 -27 45q-18 1 -76 67q-56 0 -103 21h-22
q-48 -23 -157 -133z" />
    <glyph glyph-name="q" unicode="q" horiz-adv-x="922" 
d="M469 929q141 -49 201 -98h16q11 10 27 60l11 5h11q33 -3 33 -16q-6 0 -6 -6l11 6q35 -33 38 -33l-11 -141q6 -28 6 -65v-17q0 -46 -11 -70q5 -48 5 -60l-5 -76q5 -29 5 -54q-9 -35 -21 -158q13 0 27 -54q-22 -42 -22 -55v-54q0 -5 6 -5l-6 -11v-60q0 -12 -5 -22
q5 -10 11 -54q-11 -44 -11 -71q41 -54 141 -54q0 -6 33 -6h10q0 -9 33 -54l-16 -11l-11 6v-6q5 0 5 -5q-8 0 -108 -27q-42 16 -60 16q-120 -6 -120 -22q-27 7 -27 16q6 0 6 6l-11 -6q-23 17 -44 17l-136 -17q-32 41 -32 66v5q0 42 60 60q27 -11 43 -11l33 16h54q38 0 38 76
q0 17 5 38q-5 21 -5 44q16 60 16 65q-7 27 -38 27h-27l-33 -43q-27 15 -27 32h-21q-85 -16 -125 -32q-51 43 -180 43v6q-14 11 -27 65q-23 0 -98 125q-26 155 -43 163v5q0 50 49 267q0 37 43 70q11 9 11 33q39 33 82 98q60 25 217 38zM203 516q5 -76 11 -82q-6 -29 -6 -49
v-11q0 -14 11 -32q-5 0 -5 -6q14 0 32 -81q24 -14 60 -82q97 -49 152 -49q51 38 109 38q0 55 70 55q22 76 28 76h5q0 5 -5 5q16 27 16 38l-6 38q17 22 22 82q-5 39 -5 43q5 39 5 66q-23 17 -70 97q-21 0 -49 82l-60 43q-52 0 -76 28q-105 -24 -152 -77q-9 0 -44 -76
q-27 0 -43 -146z" />
    <glyph glyph-name="r" unicode="r" horiz-adv-x="1131" 
d="M893 936q108 -30 125 -65q32 0 65 -115q5 0 5 -5v-49q0 -19 6 -49q0 -43 -152 -76q-93 30 -93 71q-7 0 -16 32q6 38 6 60v11q-25 44 -93 44q-9 -1 -70 -55q-23 -2 -98 -92q-45 -77 -82 -120v-11q0 -23 11 -43q-11 -41 -11 -76q0 -20 6 -49q-11 -26 -11 -65
q0 -131 81 -131h109q5 0 43 11h17q76 0 119 -114v-16q-5 -11 -5 -16h-16q-24 16 -44 16q-21 -3 -33 -33q-5 0 -16 -5q-106 37 -147 38q-6 0 -43 -33h-16q0 11 -38 49h-17q-51 -10 -103 -49q-35 11 -49 11h-114q-21 0 -49 -27q-23 17 -92 43q-16 13 -16 28q16 20 27 59
q15 11 103 27q0 6 33 6h114q27 14 27 43q0 35 -6 82q6 46 6 76q-11 51 -16 125q21 48 21 65q-11 34 -11 54q0 28 17 28q-22 179 -38 179h-17q-70 0 -108 -11l-33 6h-11q-22 0 -70 -11q-38 11 -38 43q12 98 86 98l39 -16q40 10 76 10h16q196 -8 196 -65q37 -38 59 -38
q39 0 82 71q4 0 136 32q0 -5 5 -5q0 8 16 16h60q23 0 60 6zM741 414h11v-22q-6 0 -17 -5l-5 11v5q2 11 11 11zM239 -64q28 -12 34 -12q29 6 46 6h13q27 0 27 -18q-12 -10 -27 -10q-14 0 -25 3q-20 -3 -40 -3h-3q-10 0 -50 15h-21q-6 0 -6 7z" />
    <glyph glyph-name="s" unicode="s" horiz-adv-x="984" 
d="M401 929l49 -6q67 6 70 6q144 -27 207 -78q-5 0 -5 -6q5 0 5 6l27 -6q8 0 38 39l33 6q43 -3 43 -45l-11 -44q6 -49 6 -84l-11 -39q5 -56 5 -89q-25 -21 -87 -21q-20 67 -38 94q6 0 6 5h-6q0 -5 -5 -5q-40 94 -147 94v6l17 28v22h-11l-33 -6q-37 18 -43 18
q-98 -45 -104 -45l-87 16q-54 -31 -54 -149q0 -44 87 -73q0 -5 16 -11q30 6 49 6q0 -8 17 -17h27q24 22 27 22h16q25 -39 120 -39q13 0 43 5q41 -26 55 -39q64 0 86 -43q98 -68 98 -184v-22q0 -11 -27 -89q0 -42 -92 -83q-26 -29 -76 -29q0 -11 -114 -32q-8 -24 -28 -34h-10
q-29 0 -87 34q-22 11 -38 11q-14 0 -44 -22q-29 16 -98 27q-3 16 -43 16h-11q-41 -50 -44 -50q-81 12 -81 45q-11 36 -11 50l16 56v33q0 56 -16 72l6 29v71q0 39 43 39q60 0 130 -194q136 -94 185 -94q18 0 27 5q30 -5 49 -5q57 0 131 44q39 0 70 55q33 12 33 45v50
q0 32 -38 50h-27l-22 -17l-11 6v-6q5 0 5 -5h-10q-9 0 -22 55h-22q-5 0 -43 -11h-6q-53 7 -103 67h-11q-31 -37 -49 -39q-28 1 -87 44q-65 0 -65 34q-103 55 -103 83q0 19 -16 50q5 0 5 6q-13 0 -16 39q0 149 43 149q40 78 109 78q28 14 109 39q0 6 5 6zM705 628h17v-10
q0 -11 -11 -11h-6q-11 0 -11 11q2 10 11 10z" />
    <glyph glyph-name="t" unicode="t" horiz-adv-x="984" 
d="M416 1281q22 0 49 -87q5 -148 5 -179l6 -11q-6 -10 -6 -22v-5q0 -44 71 -44q0 -5 27 -11q148 11 179 11q131 -9 131 -49v-32q0 -39 -71 -76q-32 12 -32 27h-11q0 -17 -44 -33l-32 11q-91 -32 -180 -49q0 -11 -11 -11q6 -54 6 -81q0 -43 -22 -196q7 -38 16 -38l-5 -54v-16
l5 -33q-5 -9 -5 -27v-6q0 -21 54 -65q0 -43 44 -43h5q42 0 109 76q28 61 43 125q40 54 93 54q76 0 76 -87v-11q-27 -106 -49 -157l-82 -104q-74 -54 -130 -54l-38 6q-27 -17 -43 -17h-11l-55 17h-27v10l-11 -5q-21 46 -87 109q-49 99 -49 190q-10 0 -16 239q16 36 16 49
q-6 168 -32 168q-37 22 -65 22h-44q-135 -33 -157 -33q-34 0 -38 115q21 54 49 54l65 -6l65 6l27 -6q117 31 141 76q0 25 -11 87q6 89 6 158v16q0 22 76 22z" />
    <glyph glyph-name="u" unicode="u" horiz-adv-x="1130" 
d="M762 939q147 -13 147 -84q16 -44 16 -62v-12q0 -6 -16 -55v-62q0 -18 16 -61l-5 -50l5 -39q-5 -40 -5 -46q5 -38 5 -61q-16 -46 -16 -168v-84q10 -27 49 -27h33l38 5q38 -31 38 -44l11 5l27 -34v-28l-11 6l5 -11v-6q0 -9 -21 -22q-13 0 -44 16l-27 -16h-16q-33 28 -38 28
l-77 -6q-70 0 -157 68h-16q-36 0 -82 -57q-41 0 -71 -17q-9 6 -21 6h-6l-21 -17h-11l-22 17h-65q-120 16 -120 34q6 0 6 5l-11 -5q-87 107 -87 133v18q0 13 16 106q-11 39 -11 67v370q0 63 -114 72q-29 0 -60 50q24 50 55 50q76 -5 130 -5h76q60 -57 60 -162q5 0 5 -5
q-20 -49 -21 -113q11 -50 11 -55q0 -14 -11 -174q5 -50 5 -61q0 -3 -5 -23q31 -190 92 -190q23 0 60 6l32 -6l44 22q0 -6 5 -6v6q-5 0 -5 6q87 70 125 156q71 73 71 124v34l-6 33q22 73 22 95q0 7 -6 56l17 73q-52 41 -60 61q-70 -22 -82 -22q-28 0 -65 95q0 67 141 67
q29 0 49 6z" />
    <glyph glyph-name="v" unicode="v" horiz-adv-x="1073" 
d="M108 923q10 0 38 -11q70 6 114 6h43q141 -8 141 -39q8 0 17 -17v-5q0 -61 -60 -73q-16 0 -33 -60q0 -212 28 -212q42 -40 76 -121q40 -34 65 -34h5q29 14 65 94q44 0 71 150q4 0 22 34v21q-44 48 -44 100q-18 0 -32 62q5 0 5 5q-43 -5 -43 -10q-31 0 -38 55q-10 0 -11 27
l16 12l33 -5q45 21 87 21q3 0 81 -11h16q19 0 77 11q34 -11 43 -11q49 4 49 11q114 -15 114 -55q10 0 16 -17q0 -59 -130 -72q0 -5 -11 -5l-33 5q-45 0 -59 -78q-44 -17 -44 -61q0 -12 -32 -94q0 -64 -44 -100q0 -57 -32 -100q-6 -10 -6 -28h6q0 -53 -71 -167
q0 -121 -65 -161q-103 0 -131 128q-29 25 -54 150q-14 20 -76 189l5 33q0 14 -49 106q-43 183 -92 183q0 16 -22 28q-95 -12 -98 -12q-43 0 -43 78q0 32 82 39q0 11 38 11z" />
    <glyph glyph-name="w" unicode="w" horiz-adv-x="1114" 
d="M208 921q70 -25 70 -83q0 -10 -22 -96q20 -210 55 -251q27 -46 27 -118q21 -29 49 -29l11 7q0 -7 5 -7q11 19 11 34q0 13 -5 62q36 83 76 134v67q19 96 81 96q76 -53 76 -124q11 0 11 -22q-5 0 -5 -6h5q0 6 6 6q21 -46 27 -123q28 0 32 -134v-11q2 -12 11 -12h16
q21 0 60 151q-5 39 -5 62q34 22 43 45v22l-5 33q22 55 22 67v46q-49 118 -49 128v6q0 29 130 45h82q65 -14 65 -96q0 -16 -71 -50q0 -9 -22 -22q0 5 -5 5l5 -11q-32 -51 -32 -106q-23 0 -33 -145q-15 -46 -27 -46v-5h5q0 5 6 5v-5q-11 -26 -27 -106q5 -31 5 -45
q-8 0 -38 -112q-13 0 -27 -112q-9 0 -49 -56l-27 6l-27 -6q-49 0 -98 236q11 27 11 39q-10 43 -60 83l-11 39h-5q-55 -12 -55 -50q0 -22 11 -72q-49 -91 -49 -147l6 -27q-34 -95 -76 -95q-27 0 -55 -34q-45 0 -59 101q-4 0 -17 28v45q0 33 -43 117q0 7 5 17q0 26 -43 235
q-49 131 -71 229q-44 15 -92 85v21q0 8 27 28q0 -5 5 -5q0 33 153 39z" />
    <glyph glyph-name="x" unicode="x" horiz-adv-x="1163" 
d="M229 924q8 0 65 -6h38q5 0 153 1q42 -13 42 -66q6 -3 6 -48q-62 -15 -33 -55q60 -136 93 -136h5q65 21 65 60q20 24 55 44l5 32v7q0 37 -60 91v11q41 60 76 60q60 -6 104 -6h38q6 0 59 1h17q51 -6 65 -6l32 5q33 -11 33 -65v-5q0 -44 -38 -70h-16q-71 16 -76 16h-6
q-18 0 -87 -33q0 -5 -5 -5l5 -1q0 -11 -11 -11q0 6 -5 6l5 -11q-18 -63 -59 -87q-16 -10 -33 -65q-42 0 -71 -98q3 -31 98 -141q11 0 11 -22q-5 0 -5 -5h5q0 5 6 5q0 -7 38 -38q12 -36 114 -120q5 0 5 -10q6 5 82 10q61 -14 97 -76q6 -9 6 -21q-11 -33 -33 -33
q-72 -23 -92 -23h-11q-32 0 -76 2h-16q-8 0 -60 -2h-49q-40 5 -65 1q-87 15 -87 76q22 48 60 71q-22 147 -93 147q0 11 -32 11q-12 0 -82 -71q-27 -14 -27 -44q-60 -60 44 -70q45 -37 21 -95q-14 -27 -22 -28q0 6 -5 6q0 -5 -60 -3q-39 14 -60 -7v-6q-10 6 -16 6
q-98 -6 -106 -1q-42 6 -133 6q0 -8 -43 2h-6q-43 28 -43 82q18 60 81 60q50 10 60 10l38 -5q26 0 76 60q9 1 54 76q30 0 82 119q54 24 54 60q0 35 -60 65q0 91 -48 125q-66 31 -66 76q-38 56 -114 72h-27q-48 -6 -54 -6q-38 0 -38 90q16 21 16 27h33q77 2 87 2z" />
    <glyph glyph-name="y" unicode="y" horiz-adv-x="1050" 
d="M988 923q42 -20 60 -49v-22q-16 0 -16 -11l-11 6h-43q0 -49 -60 -55q-131 -60 -131 -135q0 -34 -59 -136v-17q0 -12 5 -21q-37 -72 -49 -125q-32 -23 -32 -44q5 -21 5 -38q-35 -130 -54 -130q0 5 -6 5l6 -11q-10 0 -27 -157q-66 -51 -66 -152q-27 -13 -43 -65
q-103 -93 -207 -93q-44 22 -130 22h-5q-109 74 -109 114q-11 35 -11 43q30 115 98 115h5q97 0 131 -109q0 -54 54 -54q81 9 81 76q66 66 66 119q0 8 11 87q0 76 -77 217q-25 100 -59 158q-22 46 -49 147q-7 0 -33 43v44q0 27 -87 114q-24 0 -81 16q-20 -11 -44 -11l-11 17
q0 52 93 76q31 0 38 -6q59 6 103 6h82q83 0 108 -38v-38q0 -19 17 -39l-17 -10h-38l-22 -76l55 -180q0 -29 60 -92h5q98 11 98 43q34 84 60 93l-6 11q0 5 6 16q-6 29 -6 49v11q33 38 33 59l-6 22h-21q-13 0 -22 -5q-29 0 -33 76q-9 0 -11 38v5q28 60 71 60q16 0 38 -5
q51 5 98 5h16q12 0 22 5q9 -5 22 -5h54q30 0 81 11z" />
    <glyph glyph-name="z" unicode="z" horiz-adv-x="1001" 
d="M798 533q0 41 38 52q20 0 20 -21v-20q-14 -30 -29 -30zM254 935l55 -5h32l33 5q28 -11 43 -11l49 6q18 -11 33 -11h38q5 0 5 5l11 -5q62 0 114 5q80 -5 185 -5q71 -69 71 -101v-5q-8 -21 -115 -96q-59 -18 -59 -67q0 -41 -60 -56q-65 -112 -103 -112q-19 -64 -76 -95
q-13 -30 -87 -95q0 -16 -38 -56q0 5 -6 5v-5q6 0 6 -5q-55 -27 -55 -62l6 -11q-6 0 -6 -5q44 -12 55 -12h21q39 12 44 12h5q39 -12 44 -12h54l33 -6q32 6 32 12q6 0 60 -28q82 30 82 67q13 54 48 112q0 19 -27 50v12q36 66 71 83h33q38 -20 38 -56q0 -18 -6 -27q6 -31 6 -51
v-11q0 -11 -11 -57l5 -39q-5 -30 -5 -49q0 -3 5 -23q-52 -112 -119 -112q0 -13 -66 -17h-32q-22 0 -98 33l-33 -27q-9 -6 -21 -6h-28q-26 23 -43 23q-60 0 -92 -23h-11q-28 0 -65 23q-33 0 -125 -23q-51 0 -82 62q0 26 33 84q0 39 70 61q49 81 76 101q17 0 33 28h-5l48 95
q0 24 66 45q89 99 157 150q0 8 27 29q0 -6 6 -6l-6 11q49 59 49 78q-12 62 -49 62q-47 -6 -54 -6q-54 23 -60 23q-98 -33 -141 -33q-65 -47 -65 -140q-24 -140 -65 -140l-11 -6h-17q-38 26 -38 73v11q17 105 17 112v72q1 12 11 12q-11 22 -11 39q0 80 81 117zM803 -71h16
q16 -6 16 -34l-21 -16h-17q-8 0 -16 22q11 25 22 28z" />
    <glyph glyph-name="braceleft" unicode="{" horiz-adv-x="705" 
d="M263 657q15 9 31 28l11 15q56 72 29 87q10 101 -11 112q-8 5 -34 114q-19 18 -16 106q-60 173 -30 213q11 14 38 82l12 15q34 44 102 58q8 10 87 13q34 24 78 1q28 -20 38 -35l13 -7q4 -3 8 -31q-20 -27 -98 -3q-5 -7 -24 -8q-95 -40 -104 -52l-3 -96q27 -14 17 -104
q5 -87 29 -122q-13 -38 6 -83q13 -42 4 -141l8 -68l-30 -55l-6 -8q-16 -21 -40 -37l-9 -24l4 -4l59 -49q24 -15 40 -36l14 -95l-37 -84l-8 -15l15 -78q-19 -45 -6 -83q-24 -36 -29 -123q10 -90 -17 -104l3 -95q9 -13 104 -53q19 -1 24 -8q58 34 78 8q-4 -29 32 -41l-13 -7
q-30 -16 -58 -36q-44 -23 -78 2q-79 3 -87 13q-68 13 -102 57l-12 16q-27 67 -38 81q-30 40 30 214q-3 87 16 105q26 109 34 115q21 11 11 112q27 14 -29 87l-11 15q-21 24 -40 33q-21 -10 -48 -5l-5 -7q-3 3 -22 -7q-3 4 2 7l-3 4q-5 -3 -2 -7q-25 0 -29 6l-2 10
q-13 -7 -22 4t-4 24q-24 24 20 41q45 16 48 20l6 -9l4 -2h1q15 5 20 3q17 3 31 1z" />
    <glyph glyph-name="bar" unicode="|" horiz-adv-x="806" 
d="M403 1524l-1 -6q6 0 7 6q64 -8 64 -27l-2 -72l-6 -9h6l-36 -107l14 -55l-6 -36l11 -20h-6l5 -11l-1 -40q0 -51 10 -52q-6 -9 -6 -14q-2 -52 15 -72l-1 -15q-25 -25 -29 -40q6 -16 26 -57q-1 -71 -41 -130l-1 -25q0 -11 25 -72q-12 -38 -12 -46q10 -20 10 -31
q-34 -39 -35 -74q2 -9 26 -42v-5q-1 -19 -6 -46q4 -8 4 -25q-36 -34 -77 -33q-3 0 -64 37v10q1 13 46 60q1 31 6 30q0 7 -23 148q0 4 12 40q1 36 -14 102q6 0 6 5q-6 0 -6 5h6l-6 10v11q2 44 8 60q-5 44 -4 77q1 42 11 161q-21 41 -21 46q12 0 19 122l-4 11q5 8 5 19v10
q1 13 -14 47q13 50 17 50q-10 17 -9 31v4q1 41 72 60zM406 329q38 -8 37 -39q-13 -80 -13 -87l10 -38q-12 -18 -12 -33q43 -217 42 -256q-12 -35 -12 -38l15 -38q-1 -9 -95 -85q-43 2 -40 94l-5 54q7 22 7 38q1 9 -9 49q1 54 42 141q-11 17 -10 32q0 5 12 44q-22 36 -35 120
v6q7 22 66 36z" />
    <glyph glyph-name="braceright" unicode="}" horiz-adv-x="702" 
d="M458 654q5 2 21 -3v0l4 2l6 9q3 -4 48 -20q45 -17 20 -41q5 -13 -4 -24t-22 -4l-2 -10q-4 -6 -29 -6q3 4 -2 7l-3 -4q5 -3 2 -7q-19 10 -22 7l-4 7q-27 -5 -48 5q-20 -9 -41 -33l-11 -15q-56 -73 -29 -87q-10 -101 11 -112q8 -6 34 -115q19 -18 16 -105q60 -174 30 -214
q-11 -14 -38 -81l-12 -16q-34 -44 -102 -57q-8 -10 -87 -13q-34 -25 -78 -2q-28 20 -23.5 60t22.5 16q5 7 64 8q95 40 104 53l3 95q-27 14 -17 104q-5 87 -29 123q13 38 -6 83q-13 41 15 78l-8 15l-33 17l-19 16l17 23q14 18 6 115l6 8q16 21 40 36l19 49q2 2 5 4l-10 24
q-24 16 -40 37l-6 8q8 97 -6 115l-17 22l19 16l33 17l8 16q-28 36 -15 78q19 45 6 83q24 35 29 122q-10 90 17 104l-3 96q-9 12 -104 52q-59 1 -64 8q-27 56 1 76q44 23 78 -1q79 -3 87 -13q68 -14 102 -58l12 -15q27 -68 38 -82q30 -40 -30 -213q3 -88 -16 -106
q-26 -109 -34 -114q-21 -11 -11 -112q-27 -15 29 -87l11 -15q16 -19 31 -28q15 2 31 -1z" />
    <glyph glyph-name="asciitilde" unicode="~" horiz-adv-x="1350" 
d="M1012 1294h22q62 0 130 -60q8 0 44 -54q32 0 43 -60q-5 -46 -5 -76v-82q0 -6 -11 -59v-28q-38 0 -71 -43q-41 -22 -86 -22h-6q-49 0 -109 71v5q21 87 38 87q62 27 82 27q76 0 76 55q0 5 5 16q-3 16 -27 38q-13 33 -65 60q0 11 -71 32q-46 -35 -92 -49q-27 -70 -76 -70
q-41 -41 -103 -76q-12 -41 -82 -76q-70 -71 -87 -71l-11 6q-32 -12 -32 -22v-38l-6 -27h-32q-28 0 -120 -71q-46 0 -70 11q-52 -16 -60 -16q-19 0 -33 48q-70 0 -70 49q-66 74 -66 152q0 150 55 169q57 71 76 71v-6q39 16 43 16v-5l11 5q58 -29 114 -38v-11q0 -10 -11 -10
l6 -11l-11 -22q0 -5 5 -5q0 -69 -43 -98l-65 5h-11q-29 0 -49 -54l-27 -11v-11q0 -47 125 -125h11q28 0 92 6q0 24 125 87q0 40 81 97q32 49 39 49q0 -5 5 -5v5q-5 0 -5 6q59 30 163 141q82 76 125 76q16 0 97 22z" />
    <glyph glyph-name="exclamdown" unicode="&#xa1;" horiz-adv-x="649" 
d="M291 1233h22q53 0 127 -61q26 -54 26 -75q0 -8 9 -48q-26 -101 -57 -101q-18 0 -74 -57h-13q-77 12 -145 88q0 9 -31 74q0 20 -9 66q0 56 106 105q28 9 39 9zM239 -82q-12 0 -27 109q27 144 38 470q-6 34 -6 49q14 90 55 90q97 0 97 -139q0 -24 -5 -48q5 -79 27 -163v-79
q0 -5 6 -5l27 -145v-30q0 -60 -11 -60q0 -64 -125 -97h-16q-47 48 -60 48z" />
    <glyph glyph-name="cent" unicode="&#xa2;" horiz-adv-x="1097" 
d="M803 1262q74 0 74 -82v-11q0 -10 -55 -103q11 2 -14 -2q0 -30 -54 -119v-6q30 -81 90 -81q0 -9 70 -65l55 -136v-33q0 -61 -87 -76q-11 -7 -11 -16h-22q-98 15 -98 27q-26 22 -32 38v22q0 26 27 76q-5 9 -5 22h-52q-21 0 -38 -87q-55 -38 -109 -212q-30 -29 -32 -55
l5 -49q-33 -19 -49 -76q-38 -47 -38 -70v-17q0 -19 133 -32q190 25 190 65q43 8 120 98l33 5h10q66 -7 66 -60q-15 -92 -60 -92q-49 -23 -109 -81q-49 0 -65 -17q0 6 -5 6v-6q5 0 5 -5l-22 -11l-27 5q-26 -16 -109 -21q-52 0 -188 21q-18 0 -43 -27q0 6 -6 6l6 -11l-28 -71
q6 -10 -9.5 -50.5t-27.5 -40.5l-38 -22h-16q-50 0 -60 71q14 50 30 80q0 11 22 71v16h11q0 6 -6 6q11 17 11 32q-16 114 -43 114l-55 104v10q6 0 6 6q-17 0 -17 38q28 22 28 49q0 8 -11 49q5 38 5 65q0 6 -5 16q0 44 43 152q0 47 82 125q0 -5 5 -5l-5 11q5 20 81 54
q0 -5 6 -5q26 54 119 54q0 10 131 16q28 14 128 268q28 55 59 55zM273 401q40 -103 49 -103h27q38 76 60 158q54 56 54 141q36 62 71 98q0 5 11 5q-5 11 -5 17q5 38 5 43q0 19 -49 27q-11 27 -43 27q-17 0 -82 -76q-29 0 -76 -136q-22 -138 -22 -201z" />
    <glyph glyph-name="sterling" unicode="&#xa3;" horiz-adv-x="1127" 
d="M635 1311q75 -44 147 -44q6 -12 60 -27q92 -104 92 -157v-6q-13 -119 -60 -119l-38 -6q0 6 -5 6v-11h-16q-68 0 -82 108q16 76 33 104q0 38 -65 38q-6 0 -17 -6q-57 22 -76 22h-43q0 -11 -114 -33q0 6 -6 6v-6q6 0 6 -5q-36 -16 -71 -130q-5 -105 -5 -136q0 -47 7 -54.5
t7 -35.5q19 -56 65 -56h32q30 0 76 6q50 19 180 -14q0 -11 16 -11v-16q-14 -49 -92 -49q-63 -19 -87 -19q-109 -12 -85 -164q-9 0 -11 -38v-11q11 -96 27 -136q-5 0 -5 -5h5q0 5 6 5q0 -6 60 -49l-6 -11l11 6q45 -21 92 -60q28 -16 44 -16q27 0 81 43q55 0 66 54
q34 0 76 114q0 27 32 44q87 -10 87 -71q-18 -107 -32 -146q0 -19 -55 -66q-54 -81 -141 -81q0 -6 -33 -16l-10 5h-11q-38 0 -120 5l6 11q-11 -5 -17 -5q-103 66 -157 125h-28q-38 0 -97 -103q-73 -38 -104 -38h-81q-24 0 -98 70q-49 47 -49 158q13 24 27 114q3 0 28 22
q0 -6 5 -6v6q-5 0 -5 5q26 30 103 71q60 0 130 -44h27l6 38q-24 170 -62 170q-35 -11 -44 -11l-27 6q-21 -6 -43 -6h-6q-9 0 -32 38l5 27v22q11 0 11 11h5q44 0 104 -5q31 0 38 61q-18 44 -13.5 81t4.5 63v43q0 12 -5 22q0 23 38 92q14 42 54 65q18 75 38 77q0 5 5 5h49
q74 33 152 60h11zM140 293v-14q0 -17 19 -42q-5 0 -5 -5h5q0 5 4 5q10 -16 10 -23q-5 0 -5 -5h5q0 5 5 5q0 -22 46 -33q55 11 94 65v24q0 66 -70 84h-24q-48 0 -84 -61z" />
    <glyph glyph-name="currency" unicode="&#xa4;" horiz-adv-x="879" 
d="M365 1205h-8q-8 1 -8 7v7q0 6 8 6h4q10 -6 15 -6v-4q0 -5 -11 -10zM694 872q1 -2 1 -4q0 -7 34 -15q3 0 11 -27q3 0 3 3q27 0 42 -25q-4 -22 -8 -22q0 -20 -27 -21h-45q-23 3 -23 9q-33 29 -33 35l-2 4q-44 -30 -54 -30q0 4 -4 4v-4q4 0 4 -3q-2 0 -85 -36q-4 0 -42 -7
q-49 2 -59 2l1 -3q-48 17 -90 23q-25 21 -71 38q0 1 -1 2q-7 -1 -15 -30q1 -3 -30 -10q0 -3 3 -3q0 -24 -27 -37q-25 4 -25 7q-23 0 -23 24l-1 40q4 20 11 20q32 30 39 30q12 5 27 15q-9 8 -21 17q0 23 -28 70v24l4 7q-16 1 -16 35l-1 10q7 59 7 67v34l21 70q0 34 22 52
q-5 4 -5 9q-1 6 -35 13q-3 0 -11 27q-4 0 -4 -3q-27 -1 -41 24q3 22 6 23q0 20 27 21l44 1q23 -3 23 -10q34 -27 35 -33q5 -9 14 -21q19 13 44 24q27 16 27 24h3q7 0 43 -13q28 1 108 32l5 1q120 -39 120 -58q20 0 45 -22q4 5 9 5q8 0 15 31q0 2 30 10q0 3 -3 3q0 24 27 38
q25 -3 25 -7q22 1 23 -24l2 -39q-3 -20 -10 -21q-31 -30 -38 -31q-15 -6 -35 -19l17 -27q-4 0 -4 -3q7 0 32 -52q-4 -30 -4 -45q8 0 21 -49q-12 -28 -21 -136q-12 -6 -33 -38zM307 1214q2 -4 2 -7q-12 -18 -17 -19h-2q-5 0 -8 1q-27 -28 -27 -43q0 -17 -26 -138q0 -8 50 -87
q1 -41 66 -57q34 -43 65 -43q30 -7 36 -7q12 0 86 45q6 4 15 4h20q0 11 36 44q31 48 41 48q-5 7 -5 11q0 18 12 69v7q-1 7 -14 33q5 0 5 4q-9 0 -13 14q8 18 7 44q-8 30 -66 72q0 26 -86 39l-56 2l-29 -3q-21 3 -48 2q-25 -19 -44 -35z" />
    <glyph glyph-name="yen" unicode="&#xa5;" horiz-adv-x="1243" 
d="M1061 1280q54 0 76 -49l11 -40q-16 -28 -38 -28q-8 0 -49 11q-120 -9 -120 -61q0 -40 -103 -212l-27 -100q-52 -30 -71 -90v-11q13 0 22 6q46 -6 76 -6q6 0 6 6l38 -17l32 11q82 -26 82 -61q0 -39 -142 -50q0 -11 -27 -11h-5q-15 0 -76 22l-65 -11v-56l5 -33l-16 -57
q11 0 11 -21h97q39 0 60 -11q5 0 44 16q70 -23 70 -50q-26 -62 -65 -62q-156 6 -179 18q-10 -7 -22 -7q0 7 -5 7v-7q0 -13 16 -44q-6 -47 -6 -78v-11q0 -9 77 -39l38 5q152 0 152 -78q0 -16 11 -39q-44 -25 -147 -39q-35 11 -44 11q-34 -11 -43 -11q-11 0 -38 11
q-48 -5 -54 -5q-23 0 -60 5q-110 -7 -142 -11q-21 11 -59 11l-38 -5q-39 0 -60 72q0 46 54 78h11q23 0 44 -16q20 9 114 16q54 17 54 73v78l5 11q-43 9 -43 17l-114 -12l-33 7q-10 -7 -16 -7l-22 12l-32 -12q-44 10 -44 78h6q38 18 38 23l65 -5h185l10 -6q-10 42 -10 50
q5 78 5 101q-16 30 -16 44l-11 -5h-6q0 16 -10 16h-55q-44 0 -103 -5q-11 5 -16 5l-11 -5q-55 14 -55 33v11q0 50 49 50h153l10 -5v5q-14 43 -38 73l6 11h-6q0 -6 -5 -6q-27 45 -44 135l-70 94q0 51 -71 123q-174 19 -174 45v22q0 55 109 67q37 -5 60 -5h38q11 -2 11 -12
l11 6h48q23 0 60 6q93 -13 93 -51v-6q0 -51 -71 -66l-11 -17q31 -119 71 -190q29 -45 38 -55l-6 -12h6q0 6 5 6q29 -106 65 -106q44 19 125 211q60 88 60 151q-92 45 -92 62v11q0 50 43 50h33l152 17q30 -5 43 -5q52 10 82 10z" />
    <glyph glyph-name="brokenbar" unicode="&#xa6;" horiz-adv-x="1014" 
d="M132 1394q32 -13 32 -41q0 -5 -28 -46q33 0 33 -64l-5 -18q0 -5 5 -5q-10 -84 -10 -119l5 -9q-13 -73 -69 -73l-23 4v-4q-50 22 -50 59q0 17 37 46q32 -9 32 -37q-9 -15 -9 -27v-5q0 -6 13 -14q41 21 41 97v22l-4 28l4 9q0 5 -4 5l4 23v9q0 10 -4 18l4 9q0 20 -50 23
q-18 -4 -37 -4h-4q-9 0 -9 9v4q0 7 13 14h28q10 0 18 -5q8 5 19 5h18v5q-28 29 -28 50q0 23 28 32zM773 1380h18q32 0 32 -55l-4 -9v-4q0 -14 4 -14l-4 -23v-50q0 -7 13 -14q42 44 42 55q0 32 13 32l42 4l9 -4q8 4 18 4q9 -4 14 -4q0 4 4 4l19 -22q-8 0 -19 -10l-23 5
q-68 -22 -68 -69q20 -23 27 -23l-4 -9q27 -59 82 -59v-19l-27 -9q0 9 -10 9h-4l-9 -4v9q-11 0 -19 -5h-13v-4q-34 0 -37 18q14 26 14 37q-15 0 -23 46h-5l-36 -42v-23l4 -9l9 5q19 -7 19 -14v-4l-5 -10q-4 0 -4 5l-74 -9q-12 0 -23 23l10 4h4q5 0 5 -4q32 0 32 78v45
q0 11 -5 19q5 8 5 18q0 4 -5 37l5 9q0 36 -28 36q-23 0 -23 14q15 9 28 9zM622 1312q43 0 59 -60l-4 -9q0 -5 4 -14q-4 -39 -4 -59q0 -31 46 -51l4 -9q-20 -14 -41 -14q-4 0 -28 5l-9 -5l-27 5h-14v18q41 23 41 69v14q0 4 -9 36h5q-7 37 -37 37q-37 -24 -46 -50
q-13 -5 -13 -28q0 -69 36 -69l5 -9q0 -16 -37 -23l-18 5l-46 -5q0 7 -14 14l14 28l9 -5q23 0 23 87l-5 9q5 8 5 18v23q0 10 -9 10q-9 -5 -14 -5q-21 9 -23 18q2 9 9 9h32q19 0 37 -27h5q29 29 64 37zM370 1307q41 -5 41 -32q0 -10 -4 -18l4 -42q-4 -72 -4 -87q10 0 45 -13
v-9q0 -10 -9 -10q-4 0 -4 5q-5 0 -5 -5q-19 0 -78 19q-12 -10 -41 -19q-73 11 -73 42q0 10 4 18q-4 39 -4 64v46q0 10 -37 18v9q2 9 9 9h46q8 0 18 -32l-4 -45v-51q0 -26 18 -50l9 4h28q41 55 41 69q6 58 9 64q-6 0 -14 14l-9 -5h-18q0 8 -9 23q15 11 41 14zM768 1266h9v-5
q0 -9 -9 -9v14zM257 1043h45q19 -8 19 -32v-46l4 -23q14 0 55 27v-4l9 4h5q55 0 64 -77l-4 -23q3 -19 9 -19q-6 -43 -9 -55q20 -4 36 -27q-4 -9 -4 -14l-42 5l-9 -5q-15 9 -27 9h-9l-14 -9l-5 23q46 0 46 78v9q0 60 -27 73q-46 -12 -55 -36q-23 -19 -23 -55v-46q0 -5 41 -32
l-9 -14l-9 5h-37q-23 -1 -23 -9q-32 10 -32 18t41 18q0 19 5 19l-5 22v28q0 4 5 4l-5 10v68q0 23 -4 69q-46 7 -46 27zM119 969v-4l9 4q53 0 78 -64q5 -13 9 -13q0 -5 -4 -5l4 -23v-9q0 -63 -54 -92l-10 5q-26 -14 -45 -14q-78 25 -78 115q0 74 91 100zM591 969q9 -4 14 -4
q8 4 13 4q6 -6 42 -23q27 -17 27 -45q0 -16 -5 -23l10 -92h18l18 19h5q9 -2 9 -10q-24 -36 -37 -36q-8 0 -45 23l-51 -23h-36q-42 0 -65 46q0 58 83 64q73 15 73 27q0 41 -27 41l-46 9q-37 -7 -37 -50h-9l-23 5v13q0 38 69 55zM902 969q44 0 60 -59l-5 -9q0 -5 5 -14
q-5 -39 -5 -60q0 -30 46 -50l5 -9q-21 -14 -42 -14q-3 0 -27 5l-9 -5l-28 5h-14v18q42 23 42 69v13q0 4 -9 37h4q-7 37 -37 37q-36 -25 -45 -51q-14 -4 -14 -27q0 -69 37 -69l4 -9q0 -16 -36 -23l-19 5l-46 -5q0 7 -13 14l13 27l10 -4q22 0 22 87l-4 9q4 8 4 18v23q0 9 -9 9
q-9 -4 -13 -4q-21 9 -23 18q1 9 9 9h32q19 0 37 -27h4q30 29 64 36zM64 869q0 -83 60 -83q64 0 64 83q-17 46 -50 64h-10q-64 -14 -64 -64zM1049 924h9v-5q0 -9 -9 -9v14zM591 837l-23 4q-32 0 -32 -32q3 -26 69 -32q64 28 64 64l-9 18q-69 -9 -69 -22zM59 709h46
q18 -7 18 -32v-46l5 -23q13 0 55 28v-5l9 5h4q55 0 64 -78l-4 -23q3 -18 9 -18q-6 -43 -9 -55q20 -5 36 -28q-4 -8 -4 -13l-41 4l-10 -4q-15 9 -27 9h-9l-14 -9l-4 23q45 0 45 77v10q0 60 -27 73q-46 -12 -55 -37q-23 -19 -23 -55v-45q0 -6 41 -33l-9 -13l-9 4h-37
q-23 -1 -23 -9q-32 11 -32 18q0 9 42 19q0 18 4 18l-4 23v27q0 5 4 5l-4 9v69q0 23 -5 69q-46 6 -46 27zM714 636q45 -17 45 -50v-19q-2 -13 -36 -13q-12 3 -23 22q5 9 5 14l-14 9q-28 0 -69 -59l5 -9v-14q0 -5 -5 -5l5 -9l-5 -23q0 -27 32 -27h5q10 0 18 4q28 0 28 -36
q-9 4 -14 4q0 -9 -9 -9q-19 9 -32 9q-8 -4 -19 -4q0 9 -9 9q-12 -8 -73 -14q-23 6 -23 14v4q0 16 69 23v23q0 24 -5 41q5 25 5 46v5l-5 32l-32 -5h-23q-9 0 -9 14q3 14 18 18l9 -4q3 0 19 4q35 0 55 -23h18q0 17 69 28zM878 636v-5l10 5q52 0 77 -64q5 -14 10 -14
q0 -4 -5 -4l5 -23v-10q0 -63 -55 -91l-9 4q-27 -13 -46 -13q-78 24 -78 114q0 75 91 101zM407 627q56 0 87 -78v-23l-23 -14v5q-17 -9 -82 -14q-23 0 -23 9q-21 -9 -23 -18v-5q18 -41 46 -41q7 -4 22 -4q20 0 55 32h19q0 -9 4 -9q0 -27 -68 -46h-10q-78 0 -96 59
q-4 25 -4 41v19q0 72 91 87h5zM824 535q0 -82 59 -82q64 0 64 82q-17 47 -50 64h-9q-64 -13 -64 -64zM347 549v-14l46 -4q69 0 69 18l-28 46q-87 0 -87 -46zM347 710h37v-4h-37v4zM368 441h5q9 -2 9 -9v-5h-14v14zM925 377q19 -7 19 -14v-9q-78 0 -133 -87q-9 -15 -14 -50h5
q55 23 55 27q96 -9 96 -64q4 0 9 -27q0 -24 -27 -74v-9h-32q-21 -14 -33 -14q-96 15 -96 101q0 143 60 183q30 21 91 37zM438 344q51 -16 78 -69l13 -69q-7 -134 -73 -151q0 -9 -9 -9h-50q-78 52 -78 119q0 179 119 179zM651 345q32 -5 32 -14v-41q0 -29 -5 -60q5 -17 5 -41
l-5 -32h5q0 -4 -5 -4l5 -55v-42q0 -9 -9 -9l-23 5v27q0 50 4 83q-4 29 -4 78q0 27 -19 27q-29 -9 -41 -9h-4q-10 0 -10 9v9q44 29 74 69zM163 325q96 0 96 -73v-14q0 -59 -100 -91q-60 -53 -60 -64q0 -6 14 -23l23 4q4 0 13 -4l28 4h32q4 0 4 5l10 -5h9l18 19h5l4 -32
q-6 0 -13 -14l-10 5h-41q-14 0 -14 4l-22 -4h-69q-7 0 -18 18q0 72 114 124q0 8 32 22q18 19 18 28q0 34 -36 73l-9 -4l-46 4q-29 0 -51 -69l-9 -4l-4 9v18q38 64 73 64h9zM401 316q-41 -32 -41 -50q-8 -15 -18 -50l4 -23l-4 -9q21 -106 59 -106q0 -4 9 -4q76 0 92 114
l-5 28h5q-5 30 -23 73q-19 27 -78 27zM806 162v-9q8 -64 51 -64h9q41 0 69 45v32q0 43 -60 55h-18q-51 -31 -51 -59zM957 79v-13h-9v4q2 9 9 9z" />
    <glyph glyph-name="section" unicode="&#xa7;" horiz-adv-x="989" 
d="M508 1400q142 0 174 -54q76 -59 76 -130v-6q0 -2 -5 -21l-11 5q5 -11 5 -16q-14 -28 -21 -76h-6q-113 12 -136 27l-21 27q5 46 5 76q0 27 -49 38q-11 18 -11 27q6 0 6 6h-6v-6l-11 6h-5q-52 0 -120 -125v-22q0 -98 33 -98l22 -43q-6 0 -6 -6h6q0 6 5 6q29 -76 76 -76
q24 -38 114 -114q50 -57 76 -125q56 -12 114 -125q33 -129 33 -153v-5q0 -62 -43 -98q-49 -185 -131 -185l-11 -16q0 -84 27 -174v-21q0 -63 -48 -115q-20 -38 -66 -59q0 -35 -59 -49l-55 5h-103q-92 13 -92 22q0 39 -44 60q-22 58 -22 92q0 49 77 114q92 -20 92 -49
q33 -54 33 -125q40 -27 76 -27q0 7 27 27l11 -5v5q-6 0 -6 6q24 5 65 81q17 43 17 49q0 9 -44 65q0 13 -16 38q-6 0 -6 -5q-54 21 -54 71q-18 7 -81 103q-29 0 -76 87q-34 0 -55 70q-24 9 -38 33l6 38q-3 17 -49 38q-23 120 -60 120v11q16 14 49 211q10 10 65 33
q26 71 98 71q4 21 11 21q-3 47 -76 136q0 35 11 76l-17 55q0 21 49 38q6 70 54 70q0 7 39 27q0 -5 5 -5v5q-5 0 -5 6q30 23 108 32zM226 732v-38q0 -28 -17 -32q19 -136 44 -136q40 0 92 -87q31 0 55 -49q0 -41 48 -54q8 0 22 -49q68 -87 98 -87q39 0 168 146v125l-5 11
q5 0 5 6q-24 14 -54 92q-10 0 -54 65q5 0 5 6l-11 -6q-49 15 -49 22l-10 -5h-6q-18 0 -22 70q-35 14 -38 27q6 30 6 49q-87 50 -87 125l-11 6h-49q-11 0 -16 -49q-103 -93 -103 -147q-11 -2 -11 -11z" />
    <glyph glyph-name="dieresis" unicode="&#xa8;" horiz-adv-x="1024" 
d="M301 1303q32 0 32 -71v-65q0 -55 -54 -55h-65q-60 0 -60 87l-6 28q0 76 153 76zM800 1303q47 -16 82 -60v-6q-20 -114 -54 -114q0 -17 -28 -32h-10q-109 20 -109 81q-16 33 -16 38q42 87 87 87q28 0 48 6z" />
    <glyph glyph-name="copyright" unicode="&#xa9;" horiz-adv-x="1283" 
d="M659 1350q118 0 249 -71q13 -13 98 -60q28 -27 76 -103q28 -8 82 -125l-6 -38v-22l11 -16v-54q0 -13 6 -22q-6 -10 -6 -22q0 -29 17 -60q-11 -18 -11 -32v-33q0 -31 -11 -109l5 -49q-43 -26 -43 -59q0 -61 -65 -114l-6 -22l-11 5l6 -11v-5q-30 0 -76 -49
q-77 -65 -180 -65q-62 -25 -103 -60q-28 16 -54 16h-98q-190 22 -190 55q-5 0 -71 54q-33 0 -60 76q-70 82 -70 125q0 23 -6 44q6 0 6 5h-11v49q0 22 -6 43q6 21 6 44v38q0 14 -22 60q16 5 16 32v33q0 16 -5 16l5 27v55q0 22 55 125q0 61 32 76l93 108q0 29 65 44
q0 44 239 54q0 8 44 17zM485 1273q-36 -7 -98 -59q-40 0 -98 -93q-1 -17 -65 -59q-31 -79 -33 -104l-11 -11l6 -10v-22q-22 -25 -22 -49l6 -33q-6 -28 -6 -54l22 -38q-13 0 -22 -22v-38q49 -59 49 -125q24 -7 49 -98q8 0 32 -59q37 -10 60 -44q-5 0 -5 -5l98 -49
q0 -37 190 -49q0 -5 27 -5q66 0 179 59q79 44 104 98q50 37 76 141q38 26 38 66l-6 54q27 73 27 87v27q0 60 -16 60q5 10 5 16q-16 49 -27 60v16l-32 33q16 36 16 49v5q0 15 -11 33q6 0 6 5q-55 59 -55 65q6 0 6 6q-7 0 -60 65q-26 24 -125 43q-97 11 -136 44
q-117 -6 -168 -6zM642 1154q27 -16 44 -16l27 5q75 -30 114 -54q38 0 71 -71q37 -12 59 -87q-30 -119 -49 -119q0 -5 -86 -44h-17q-70 72 -70 103v82q0 41 -55 60v-6l-11 6q-5 0 -5 -6l-38 6h-5l-33 -6q-11 6 -16 6q-10 -6 -22 -6v6q-109 -37 -109 -71q-33 0 -76 -125
l11 -33l-11 -27q6 -10 6 -16h-6l6 -11q0 -12 -6 -22q0 -74 114 -206l93 -38v5q10 -5 16 -5q163 21 163 43q60 17 60 60q76 42 76 49l81 -43q-5 -50 -21 -71v-22l21 -22q-5 0 -5 -5q-21 11 -60 11q-132 -54 -141 -54q0 -22 -98 -28q0 -5 -16 -11q-29 10 -152 17q0 9 -28 11
h-5l-27 -6q0 34 -87 93q-82 161 -82 195q6 30 6 49q0 34 -6 82q6 28 6 65h-6q44 72 44 98q44 17 76 81q25 0 70 54q40 0 185 44z" />
    <glyph glyph-name="registered" unicode="&#xae;" horiz-adv-x="1263" 
d="M587 1355l54 -16h120q201 -27 201 -71q30 -30 81 -54q0 -21 93 -152q22 -151 22 -180q-6 -28 -6 -65v-11q0 -9 22 -59l-16 -28v-21q0 -31 5 -38q-5 -30 -5 -49v-44l-55 -125q0 -65 -38 -65q0 -5 6 -5l-87 -104q0 -32 -71 -49q0 -43 -239 -54q0 -9 -49 -16
q-134 11 -179 32q0 11 -71 33q-18 25 -103 60q-59 91 -120 152q0 5 -43 103h11v49h-11v54l-6 33q6 10 6 22q0 16 -11 43q5 60 5 103v28q2 10 11 10l-5 11l5 38q-5 40 -11 49q60 37 60 120q6 0 6 5q-6 0 -6 6q42 20 71 81q21 0 70 49q76 65 180 65q62 25 103 60zM419 1170h65
q38 11 43 11h71l16 11h60l33 -5q19 10 43 10q27 -27 76 -32q0 -10 82 -82q54 -76 54 -108v-6q-38 -56 -44 -59q0 -9 28 -39v-5q0 -11 -11 -11q-6 0 -6 6q-57 -21 -103 -98v-6q0 -17 49 -103q0 -6 27 -38l-5 -38q0 -114 65 -114q45 -5 81 -27q31 50 55 136l-6 10v11l22 33
l-5 49q5 30 5 43q-7 28 -22 28v10l22 33v27q-49 59 -49 125q-13 0 -38 60h6q-49 108 -71 109q-13 0 -65 59q-37 0 -93 55l-184 27q-154 -27 -201 -82zM533 1078q-6 -156 -11 -174q16 -54 27 -54h22l16 11h16q35 0 76 10l55 -32q92 31 92 76q6 9 6 22q-11 0 -11 11v54
q16 21 16 32q0 32 -71 60q-38 9 -38 17l-38 -6h-38l-27 16q-82 -27 -92 -43zM348 1111q0 -17 -49 -60q-33 -116 -60 -120q-11 -22 -11 -32q0 -4 6 -71q0 -14 -16 -38q5 0 5 -5q-16 0 -16 -38v-17q0 -46 16 -65q-5 0 -5 -5q5 0 5 -6h-5q16 -45 27 -60v-16q17 -27 32 -27
q0 -28 -16 -49v-22l11 -16l-6 -11q55 -54 55 -76h5q0 71 38 71q93 0 93 38l5 27q0 48 -43 87v5q0 15 27 60l-22 38v16q33 25 33 49l-6 22h6q0 5 -6 5q0 13 16 104v11q0 28 -5 92h5l-10 32l5 33q0 35 -114 44zM533 583q0 -2 5 -21l-5 -49q28 -76 97 -76q17 0 33 -27v-28
q-33 -31 -33 -48h-32q0 23 -27 32q0 -12 -93 -16q-17 11 -27 11q-20 0 -98 -17v-10q65 -49 104 -49q145 -24 179 -55q97 6 157 6q20 0 93 54q28 0 70 54v11q-10 0 -10 6l-38 -6h-38q-31 0 -60 55l-55 277q-38 52 -48 54q-53 -29 -104 -33q-49 -32 -49 -103z" />
    <glyph glyph-name="degree" unicode="&#xb0;" horiz-adv-x="722" 
d="M338 1398q110 0 138 -44q49 -20 127 -133v-13q-38 -47 -38 -82q12 -23 12 -50q-21 -13 -37 -13h-20q-9 -52 -57 -82q-62 -32 -81 -32q-35 7 -51 7q0 -9 -31 -25l-127 57q-63 133 -63 189v44q48 151 151 151q21 0 77 26zM224 1164q28 -95 120 -95h13l82 44q0 30 -7 64
q7 33 7 63q-66 51 -114 51q-95 0 -95 -70q-6 -23 -6 -57z" />
    <glyph glyph-name="plusminus" unicode="&#xb1;" horiz-adv-x="1014" 
d="M506 1146q65 0 65 -173q-5 -10 -5 -22v-16q1 -39 10 -39q-10 -24 -10 -54q37 -87 114 -87q48 6 59 6q55 -17 82 -17l87 17q49 -14 49 -44q-6 0 -6 -5h6q0 5 5 5l16 -27v-27q-13 -27 -76 -49q-5 0 -32 22h-22q-18 0 -27 -6l-33 6h-32q-21 -17 -33 -17q-68 11 -114 11
q-22 -18 -22 -98q11 -17 11 -27q-17 -234 -32 -250q-45 -27 -82 -27q-30 0 -38 93q0 24 5 70l-5 55q11 51 11 81v27q0 63 -76 71q-18 -11 -33 -11h-54q-39 0 -60 11q-17 -6 -60 -27q-8 0 -70 27q-6 0 -17 -6q-54 6 -54 49q16 48 54 82h49q23 0 44 5q21 -5 43 -5q11 0 38 16
l33 -5q141 0 141 54l6 38q-10 60 -17 60l6 38v27q-17 53 -17 60q25 108 93 108zM613 190h8q22 -30 38 -30h52l29 9q34 0 80 -9q22 4 42 4q118 -7 118 -42q-4 0 -4 -4h9v-59h-9l4 -8q-2 -12 -21 -22q-29 0 -29 9q-21 -13 -30 -13q-18 0 -55 4l-37 -4q-24 4 -38 4q0 -4 -5 -4
q0 4 -4 4q0 -10 -17 -12q-15 8 -33 8h-14q-27 -8 -97 -12q-21 12 -42 12q-42 -6 -42 -12q-15 8 -34 8h-4q-8 -29 -17 -29h-12q-33 29 -38 29q-23 -4 -26 -4l-93 21q-97 -4 -118 -9q-20 9 -38 9l-51 -4q-14 26 -42 54v17q0 59 68 59l8 9q67 -4 89 -13q17 0 33 4
q104 -8 119 -8q21 13 34 13q34 -9 42 -9h8q33 0 114 9q14 -9 26 -9q22 0 29 30z" />
    <glyph glyph-name="acute" unicode="&#xb4;" horiz-adv-x="790" 
d="M535 1420h8q34 0 53 -57q-14 0 -36 -77q-18 -21 -41 -28q0 4 -4 4q0 -8 -61 -32q0 -19 -64 -80q0 -18 -48 -28q-14 -33 -48 -33h-53q-12 4 -12 24q16 20 20 65q16 0 33 60q32 0 72 101q7 0 28 28q34 24 41 24l20 -4q20 12 92 33z" />
    <glyph glyph-name="mu" unicode="&#xb5;" horiz-adv-x="1097" 
d="M928 37q-32 13 -32 41q0 5 27 46q-32 0 -32 64l5 18q0 5 -5 5q10 84 10 119l-5 9q13 73 69 73l23 -4v4q50 -22 50 -59q0 -17 -37 -46q-32 9 -32 37q9 15 9 27v5q0 6 -13 14q-42 -21 -42 -97v-22l5 -28l-5 -9q0 -5 5 -5l-5 -23v-9q0 -10 5 -18l-5 -9q0 -20 51 -23
q18 4 36 4h5q9 0 9 -9v-4q0 -7 -14 -14h-27q-10 0 -18 5q-8 -5 -19 -5h-18v-5q27 -29 27 -50q0 -23 -27 -32zM287 51h-18q-32 0 -32 55l4 9v4q0 14 -4 14l4 23v50q0 7 -14 14q-41 -44 -41 -55q0 -32 -13 -32l-42 -4l-9 4q-8 -4 -18 -4q-9 4 -14 4q0 -4 -4 -4l-19 22
q7 0 19 10l22 -5q69 22 69 69q-20 23 -27 23l4 9q-27 59 -82 59v19l27 9q0 -9 9 -9h5l9 4v-9q10 0 19 5h13v4q34 0 37 -18q-14 -26 -14 -37q15 0 23 -46h5l36 42v23l-4 9l-10 -5q-18 7 -18 14v4l5 10q4 0 4 -5l74 9q12 0 22 -23l-9 -4h-4q-5 0 -5 4q-32 0 -32 -78v-45
q0 -11 5 -19q-5 -8 -5 -18q0 -4 5 -37l-5 -9q0 -36 28 -36q22 0 22 -14q-15 -9 -27 -9zM438 119q-44 0 -59 60l4 9q0 5 -4 14q4 39 4 59q0 31 -46 51l-4 9q20 14 41 14q3 0 27 -5l10 5l27 -5h14v-18q-41 -23 -41 -69v-14q0 -4 9 -36h-5q7 -37 37 -37q36 24 46 50q13 5 13 28
q0 69 -36 69l-5 9q0 16 37 23l18 -5l46 5q0 -7 14 -14l-14 -28l-9 5q-23 0 -23 -87l4 -9q-4 -8 -4 -18v-23q0 -10 9 -10q9 5 14 5q21 -9 23 -18q-2 -9 -10 -9h-32q-18 0 -36 27h-5q-29 -29 -64 -37zM690 124q-41 5 -41 32q0 10 4 18l-4 42q4 72 4 87q-10 0 -45 13v9
q0 10 9 10q4 0 4 -5q5 0 5 5q19 0 78 -19q12 10 41 19q73 -11 73 -42q0 -10 -4 -18q4 -39 4 -64v-46q0 -10 37 -18v-9q-2 -9 -9 -9h-46q-8 0 -19 32l5 45v51q0 26 -18 50l-9 -4h-28q-41 -55 -41 -69q-6 -58 -9 -64q6 0 14 -14l9 5h18q0 -8 9 -23q-15 -11 -41 -14zM292 165
h-10v5q0 9 10 9v-14zM803 388h-46q-18 8 -18 32v46l-4 23q-14 0 -55 -27v4l-10 -4h-4q-55 0 -64 77l4 23q-3 19 -9 19q6 43 9 55q-20 4 -36 27q4 9 4 14l42 -5l9 5q15 -9 27 -9h9l14 9l5 -23q-46 0 -46 -78v-9q0 -60 27 -73q46 12 55 36q23 19 23 55v46q0 5 -41 32l9 14
l9 -5h37q23 1 23 9q32 -10 32 -18t-41 -18q0 -19 -5 -19l5 -22v-28q0 -4 -5 -4l5 -10v-68q0 -23 4 -69q46 -7 46 -27zM941 462v4l-10 -4q-52 0 -77 64q-5 13 -10 13q0 5 5 5l-5 23v9q0 63 55 92l10 -5q26 14 45 14q78 -25 78 -115q0 -74 -91 -100zM469 462q-9 4 -14 4
q-9 -4 -13 -4q-6 6 -42 23q-27 17 -27 45q0 16 4 23l-9 92h-18l-18 -19h-5q-9 2 -9 10q24 36 37 36q8 0 45 -23l51 23h36q42 0 64 -46q0 -58 -82 -64q-73 -15 -73 -27q0 -41 27 -41l46 -9q37 7 37 50h9l23 -5v-13q0 -38 -69 -55zM158 462q-44 0 -60 59l5 9q0 5 -5 14
q5 39 5 60q0 30 -46 50l-5 9q21 14 42 14q3 0 27 -5l9 5l28 -5h13v-18q-41 -23 -41 -69v-13q0 -4 9 -37h-4q7 -37 36 -37q37 25 46 51q14 4 14 27q0 69 -37 69l-4 9q0 16 36 23l19 -5l45 5q0 -7 14 -14l-14 -27l-9 4q-23 0 -23 -87l5 -9q-5 -8 -5 -18v-23q0 -9 10 -9
q8 4 13 4q21 -9 23 -18q-1 -9 -9 -9h-32q-19 0 -37 27h-4q-30 -29 -64 -36zM996 562q0 83 -60 83q-64 0 -64 -83q17 -46 50 -64h9q65 14 65 64zM11 507h-9v5q0 9 9 9v-14zM469 594l23 -4q32 0 32 32q-3 26 -69 32q-64 -28 -64 -64l9 -18q69 9 69 22zM1001 722h-46
q-18 7 -18 32v46l-5 23q-13 0 -55 -28v5l-9 -5h-4q-55 0 -64 78l4 23q-3 18 -9 18q6 43 9 55q-20 5 -37 28q5 8 5 13l41 -4l9 4q15 -9 28 -9h9l14 9l4 -23q-45 0 -45 -77v-10q0 -60 27 -73q46 12 55 37q23 19 23 55v45q0 6 -41 33l9 13l9 -4h37q22 1 22 9q33 -11 33 -18
q0 -9 -42 -19q0 -18 -4 -18l4 -23v-27q0 -5 -4 -5l4 -9v-69q0 -23 5 -69q46 -6 46 -27zM346 795q-46 17 -46 50v19q3 13 37 13q12 -3 23 -22q-5 -9 -5 -14l14 -9q28 0 69 59l-5 9v14q0 5 5 5l-5 9l5 23q0 27 -32 27h-5q-10 0 -18 -4q-28 0 -28 36q9 -4 14 -4q0 9 9 9
q19 -9 32 -9q8 4 19 4q0 -9 9 -9q12 8 73 14q23 -6 23 -14v-4q0 -16 -69 -23v-23q0 -24 5 -41q-5 -25 -5 -46v-5l5 -32l32 5h23q9 0 9 -14q-3 -14 -18 -18l-10 4q-2 0 -18 -4q-35 0 -55 23h-18q0 -17 -69 -28zM181 795v5l-9 -5q-52 0 -78 64q-4 14 -9 14q0 4 5 4l-5 23v10
q0 63 55 91l9 -4q27 13 46 13q78 -24 78 -114q0 -75 -92 -101zM653 804q-56 0 -87 78v23l23 14v-5q16 9 82 14q23 0 23 -9q21 9 23 18v5q-18 41 -46 41q-7 4 -23 4q-19 0 -55 -32h-18q0 9 -4 9q0 27 68 46h9q79 0 97 -59q4 -25 4 -41v-19q0 -72 -91 -87h-5zM236 896
q0 82 -59 82q-64 0 -64 -82q17 -47 50 -64h9q64 13 64 64zM713 882v14l-46 4q-69 0 -69 -18l28 -46q87 0 87 46zM713 721h-37v4h37v-4zM692 990h-5q-9 2 -9 9v5h14v-14zM134 1054q-18 7 -18 14v9q78 0 133 87q9 15 14 50h-5q-55 -23 -55 -27q-96 9 -96 64q-5 0 -9 27
q0 24 27 74v9h32q21 14 32 14q97 -15 97 -101q0 -143 -60 -183q-31 -21 -92 -37zM622 1087q-52 16 -78 69l-13 69q7 134 73 151q0 9 9 9h50q78 -52 78 -119q0 -179 -119 -179zM409 1086q-32 5 -32 14v41q0 29 5 60q-5 17 -5 41l5 32h-5q0 4 5 4l-5 55v42q0 9 9 9l23 -5v-27
q0 -50 -4 -83q4 -29 4 -78q0 -27 19 -27q29 9 41 9h4q9 0 9 -9v-9q-43 -29 -73 -69zM897 1106q-96 0 -96 73v14q0 59 100 91q60 53 60 64q0 6 -14 23l-23 -4q-5 0 -13 4l-28 -4h-32q-5 0 -5 -5l-9 5h-9l-18 -19h-5l-4 32q6 0 13 14l10 -5h41q13 0 13 -4l23 4h69q7 0 18 -18
q0 -72 -114 -124q0 -8 -32 -22q-18 -19 -18 -28q0 -34 36 -73l9 4l46 -4q29 0 50 69l10 4l4 -9v-18q-38 -64 -73 -64h-9zM659 1115q41 32 41 50q8 15 18 50l-4 23l4 9q-21 106 -59 106q0 4 -9 4q-76 0 -92 -114l5 -28h-5q5 -30 23 -73q19 -27 78 -27zM254 1269v9
q-8 64 -51 64h-9q-41 0 -69 -45v-32q0 -43 60 -55h18q51 31 51 59zM102 1352v13h10v-4q-2 -9 -10 -9z" />
    <glyph glyph-name="onequarter" unicode="&#xbc;" horiz-adv-x="1488" 
d="M1185 1147h9q44 0 62 -53q-4 -110 -4 -173q-8 -45 -14 -45l5 -9v-53q0 -49 9 -85l-14 -35q5 -37 5 -62q-9 -60 -9 -76v-22q0 -21 22 -97q0 -27 27 -27h26q5 0 5 5q6 -4 62 -9q23 4 44 4q49 -23 49 -58q0 -15 -58 -36q-31 14 -106 23q-7 -15 -53 -41q-18 -48 -18 -80
q22 -112 22 -190q-4 -31 -35 -31q-71 11 -71 57q18 121 18 138v40h8q0 89 -89 89q-25 8 -120 18q-7 0 -27 -9q-37 4 -62 4h-44q-22 -18 -31 -18q-62 25 -62 63q12 54 44 115q0 8 53 76q0 10 58 115q0 23 49 98q29 42 40 89q22 49 57 76q18 53 36 71h-4q11 50 36 79
q48 49 75 49zM927 552l-9 4q5 -8 5 -13q-20 -57 -58 -57l-4 -23v-9q9 -53 97 -53l18 -4q41 13 53 13l63 -13h22q33 0 62 84q-4 58 -4 93v9q0 14 -13 40l13 89q0 7 -9 40q9 39 9 57q0 94 -31 94q-37 -16 -67 -89q-27 0 -40 -71q-16 0 -45 -71q-60 -69 -62 -120zM283 1371
q102 -10 102 -40q5 0 5 -4q-5 0 -5 -5q5 0 14 -4l-9 -191q4 -23 4 -44q-17 -67 -17 -98q8 -43 13 -182q-9 -25 -13 -62q0 -8 8 -36l-8 -49q8 -33 8 -62v-67q9 -31 9 -35q0 -8 -9 -27q5 -49 5 -84v-9q0 -41 -27 -54h-44q-41 7 -41 40l5 27q-9 38 -9 44l4 54l-4 22q4 23 4 45
l-4 27q4 58 18 97v84l4 9q-18 0 -22 98q0 8 9 35q-5 46 -5 71v45q-15 85 -58 85h-22q-35 -30 -75 -36q0 4 -5 4q0 -6 -13 -13h-35q-58 16 -58 58t133 98q0 25 116 141q0 7 22 18zM1017 1479h-43q15 0 30 -14q0 5 5 5q39 -21 15 -96q9 0 9 -30v-9l-48 -40q-11 -23 -11 -52
q0 -23 -44 -52q-16 -53 -43 -100q0 -22 -35 -100q-16 -39 -48 -96q-4 -55 -47 -108q-17 -52 -44 -101q0 -48 -53 -121q0 -27 -12 -27q0 -4 4 -4q-40 -79 -65 -166l-22 -30l-65 -157q0 -7 -9 -40q5 -8 5 -12q0 -7 -55 -52q-26 -105 -39 -105l-12 8q-35 0 -35 40
q30 117 66 200q56 46 56 70q0 25 26 96q20 1 40 48h4q-9 38 -13 38l48 88q0 5 30 43q0 75 22 75q26 64 26 91q65 42 65 131l-4 26q0 16 40 43q38 67 38 74l9 -4l-4 9q19 21 43 104q15 0 35 104q5 35 17 35l-4 9v18q27 26 31 74q11 7 48 73q28 14 43 14z" />
    <glyph glyph-name="onehalf" unicode="&#xbd;" horiz-adv-x="1670" 
d="M292 1373q102 -10 102 -40q5 0 5 -4q-5 0 -5 -5q5 0 14 -4l-9 -191q4 -23 4 -44q-17 -67 -17 -98q8 -43 13 -182q-9 -25 -13 -62q0 -8 8 -36l-8 -49q8 -33 8 -62v-67q9 -31 9 -35q0 -8 -9 -27q5 -49 5 -84v-9q0 -41 -27 -54h-44q-41 7 -41 40l5 27q-9 38 -9 44l4 54
l-4 22q4 23 4 45l-4 27q4 58 18 97v84l4 9q-18 0 -22 98q0 8 9 35q-5 46 -5 71v45q-15 85 -58 85h-22q-35 -30 -75 -36q0 4 -5 4q0 -6 -13 -13h-35q-58 16 -58 58t133 98q0 25 116 141q0 7 22 18zM1036 1461h-43q15 0 30 -14q0 5 5 5q39 -21 15 -96q9 0 9 -30v-9l-48 -40
q-11 -23 -11 -52q0 -23 -44 -52q-16 -53 -43 -100q0 -22 -35 -100q-16 -39 -48 -96q-4 -55 -47 -108q-17 -52 -44 -101q0 -48 -53 -121q0 -27 -12 -27q0 -4 4 -4q-40 -79 -65 -166l-22 -30l-65 -157q0 -7 -9 -40q5 -8 5 -12q0 -7 -55 -52q-26 -105 -39 -105l-12 8
q-35 0 -35 40q30 117 66 200q56 46 56 70q0 25 26 96q20 1 40 48h4q-9 38 -13 38l48 88q0 5 30 43q0 75 22 75q26 64 26 91q65 42 65 131l-4 26q0 16 40 43q38 67 38 74l9 -4l-4 9q19 21 43 104q15 0 35 104q5 35 17 35l-4 9v18q27 26 31 74q11 7 48 73q28 14 43 14z
M1151 1025l40 -9q31 5 49 5q84 -31 174 -49l67 -80q-5 0 -5 -4h5q0 4 4 4q19 0 44 -155q-25 -165 -57 -165q-4 -14 -93 -80q-24 -58 -72 -58q-108 -44 -124 -44q-10 0 -40 -44q-42 0 -67 -45q-22 0 -58 -53q-62 -50 -62 -94q0 -75 54 -75q57 13 62 13h9q11 0 53 -13h4
q58 13 62 13h5q21 0 71 -9q69 10 98 18q9 0 44 -13q29 0 54 62l17 13h5l13 -9l-4 -44v-9l17 -27q0 -37 -35 -62q0 5 -4 5v-5q4 0 4 -4q-7 0 -18 -9q-3 0 -44 13q-14 0 -31 -4q-110 4 -178 13q-29 -13 -40 -13q-18 0 -67 9q-5 0 -13 -5q-25 5 -40 5q-24 -8 -120 -14
q-43 27 -49 27l5 9l-9 -5q-8 0 -22 27l4 9v71q23 111 98 191q1 15 89 54q21 44 70 44q23 35 67 35q66 32 124 102q61 0 94 67q27 0 36 62q-27 156 -54 156q-49 76 -58 76q-22 6 -22 17h-9q-18 0 -36 -4l-22 4q-3 0 -26 -4q-37 22 -49 22q-17 -11 -84 -22q-25 -27 -67 -44
q0 -12 -44 -85q-12 -107 -40 -107q0 -9 -9 -9h-18q-18 0 -22 54q0 76 58 102q58 107 66 107t40 31q102 31 106 31q0 -5 5 -5v5q-5 0 -5 4z" />
    <glyph glyph-name="threequarters" unicode="&#xbe;" horiz-adv-x="1708" 
d="M1427 1157h9q44 0 62 -53q-4 -110 -4 -173q-8 -45 -14 -45l5 -9v-53q0 -49 9 -85l-14 -35q5 -37 5 -62q-9 -60 -9 -76v-22q0 -21 22 -97q0 -27 27 -27h26q5 0 5 5q6 -4 62 -9q23 4 44 4q49 -23 49 -58q0 -15 -58 -36q-31 14 -106 23q-7 -15 -53 -41q-18 -48 -18 -80
q22 -112 22 -190q-4 -31 -35 -31q-71 11 -71 57q18 121 18 138v40h8q0 89 -89 89q-25 8 -120 18q-7 0 -27 -9q-37 4 -62 4h-44q-22 -18 -31 -18q-62 25 -62 63q12 54 44 115q0 8 53 76q0 10 58 115q0 23 49 98q29 42 40 89q22 49 57 76q18 53 36 71h-4q11 50 36 79
q48 49 75 49zM1169 562l-9 4q5 -8 5 -13q-20 -57 -58 -57l-4 -23v-9q9 -53 97 -53l18 -4q41 13 53 13l63 -13h22q33 0 62 84q-4 58 -4 93v9q0 14 -13 40l13 89q0 7 -9 40q9 39 9 57q0 94 -31 94q-37 -16 -67 -89q-27 0 -40 -71q-16 0 -45 -71q-60 -69 -62 -120zM1279 1489
h-43q15 0 30 -14q0 5 5 5q39 -21 15 -96q9 0 9 -30v-9l-48 -40q-11 -23 -11 -52q0 -23 -44 -52q-16 -53 -43 -100q0 -22 -35 -100q-16 -39 -48 -96q-4 -55 -47 -108q-17 -52 -44 -101q0 -48 -53 -121q0 -27 -12 -27q0 -4 4 -4q-40 -79 -65 -166l-22 -30l-65 -157
q0 -7 -9 -40q5 -8 5 -12q0 -7 -55 -52q-26 -105 -39 -105l-12 8q-35 0 -35 40q30 117 66 200q56 46 56 70q0 25 26 96q20 1 40 48h4q-9 38 -13 38l48 88q0 5 30 43q0 75 22 75q26 64 26 91q65 42 65 131l-4 26q0 16 40 43q38 67 38 74l9 -4l-4 9q19 21 43 104q15 0 35 104
q5 35 17 35l-4 9v18q27 26 31 74q11 7 48 73q28 14 43 14zM464 1373l45 -14l110 14q125 0 125 -45q7 0 13 -40q-11 -48 -22 -48q0 4 -5 4l5 -9q-72 -43 -93 -84q-62 -30 -62 -102q-5 0 -9 -22q0 -32 71 -50q128 -112 128 -159q24 -85 27 -85q-13 -29 -13 -35l4 -62
q-49 -118 -62 -142q-5 0 -40 -59q-6 0 -89 -84l-79 -53q-64 -49 -89 -49q-152 -75 -178 -75q-56 -5 -67 -5q-49 8 -49 58q30 45 71 53q15 9 22 9q32 -4 36 -4q9 0 49 39q35 0 85 36q44 0 102 44q0 -4 4 -4v4q-4 0 -4 5q24 18 44 58l98 93q35 90 35 107v62q0 26 -58 111
q-43 48 -101 48q-2 9 -32 14q-98 -21 -102 -36q0 -16 -67 -26q-28 9 -35 9l4 8l-9 -4q-18 7 -18 13q5 0 5 5h-9v9q0 39 44 75l9 -4v4q-4 0 -4 4q53 46 89 103q11 0 62 45q32 18 63 88v18q-4 14 -58 31q0 7 -13 13h-18q-31 -26 -49 -26l-45 22l-58 -27q-41 -17 -66 -66
l-18 -9q-80 0 -80 89q12 97 75 97q62 22 94 22h4l9 -4q2 9 9 9h22q6 0 72 -9h22q13 0 44 18z" />
    <glyph glyph-name="questiondown" unicode="&#xbf;" horiz-adv-x="958" 
d="M567 -126q-109 0 -228 33q-97 0 -141 59q-42 0 -76 60l5 11h-5q0 -5 -6 -5q-21 47 -27 92l22 190h-6q0 63 76 120q51 38 71 38q27 0 65 43q10 0 49 49q49 0 49 65q0 24 -11 49q23 71 71 71h11q44 0 92 -93v-43q0 -102 -157 -239q0 -15 -109 -65q-11 -14 -22 -71
q-22 -7 -22 -49v-49q0 -119 104 -119q23 -33 49 -33q228 16 228 44q73 41 81 49q0 41 -54 59v6l5 11h-5q0 -6 -6 -6q-16 27 -16 71v5l27 103q45 33 76 33q12 0 60 -71q21 -18 54 -92q-14 -114 -32 -114q-39 -106 -120 -152l-130 -49q-22 0 -22 -11zM518 879q-107 0 -163 120
q31 157 114 157h17q111 0 152 -103q0 -21 16 -76q-7 -25 -22 -27q0 5 -5 5l5 -11v-5q-30 0 -103 -60h-11z" />
    <glyph glyph-name="Agrave" unicode="&#xc0;" horiz-adv-x="1070" 
d="M383 1693q47 -11 47 -24v-14l-4 -10l52 -28q0 -56 43 -81q0 -49 33 -71q9 -11 38 -95q-20 -33 -29 -33h-28q-36 52 -52 52q-81 81 -109 90q-86 75 -86 110q12 128 38 128h34q23 -17 23 -24zM487 1256h10q50 -35 55 -49q-6 0 -6 -6h6q0 6 5 6l33 -49q11 -25 22 -76
q-6 0 -6 -6q20 -16 60 -174q12 0 22 -108q43 -57 43 -169q54 -87 54 -130v-16l-5 -11q25 0 49 -163q12 -16 38 -93q31 -24 92 -49v-5q6 0 6 5q81 -18 81 -81q-36 -71 -125 -71q-28 11 -43 11q-138 -5 -201 -5q-33 5 -33 16q6 0 6 5l-11 -5q-27 19 -27 44v38q0 38 48 38h33
q18 0 33 81v44q0 59 -120 81q0 5 -5 5l-65 -5q-90 5 -136 5q-87 -58 -87 -135v-22q0 -54 81 -87v-5l11 5q31 0 38 -76q0 -18 -60 -38l-32 5q-7 0 -71 -16q-18 11 -32 11h-22q-75 0 -174 -22q-13 13 -49 82v5q0 55 168 76q32 40 49 109q11 0 11 27l-5 27q22 54 22 60
q-6 56 -6 65q54 166 65 234q44 171 55 255q11 0 16 44q0 4 -5 32q48 87 48 152q17 6 17 33v43q0 17 49 28zM383 549q13 -70 98 -70q10 -6 49 -11q106 13 120 27l5 27v11q-22 54 -27 174q-15 0 -33 130q-36 51 -54 141q-10 0 -27 11q-31 0 -60 -152q-16 -144 -43 -179
q0 -58 -28 -109z" />
    <glyph glyph-name="Aacute" unicode="&#xc1;" horiz-adv-x="1086" 
d="M655 1713h33q26 0 38 -128q0 -35 -85 -109q-29 -10 -109 -90q-17 0 -52 -52h-28q-9 0 -29 33q29 84 37 95q34 22 34 71q42 24 42 81l53 28l-5 9v14q0 13 47 24q0 7 24 24zM486 1270h17q31 0 76 -76q19 0 27 -65q32 -25 54 -142q26 -140 71 -260q0 -71 43 -142
q26 -119 66 -222q29 -174 81 -174q61 -27 120 -44q21 -32 21 -65q0 -58 -87 -76l-32 5q-57 -5 -93 -5q-60 11 -65 11q-52 -11 -76 -11q-81 18 -81 81v44q0 22 87 27q21 27 21 130q0 59 -163 71l-38 6l-60 -22q-27 16 -43 16h-11q-24 0 -81 -60q-22 -7 -22 -49v-21l38 -87
q64 0 103 -87q-25 -54 -81 -54h-44q-35 0 -70 5q-135 -22 -185 -22q-39 0 -76 103v17q8 0 21 11h39q20 0 48 27h49q40 0 49 65q27 45 27 125q17 12 17 38v71q54 172 54 190t33 146q27 91 54 250q17 0 38 174q41 71 54 71zM465 868q5 -46 5 -71q-17 0 -38 -141l-27 -114
q0 -61 119 -71q0 -5 17 -5q57 23 114 27q11 18 11 33v10q-22 47 -28 158l-38 152l-54 125l-16 11h-16q-20 0 -33 -82q-11 -1 -16 -32z" />
    <glyph glyph-name="Acircumflex" unicode="&#xc2;" horiz-adv-x="1064" 
d="M522 1695q34 0 34 -43q12 0 38 -91q62 -33 62 -72q5 0 5 -4v-29q0 -35 57 -100l9 -15q0 -32 -33 -57q-4 0 -4 5l-10 -5h-10q-71 11 -71 19q0 15 -19 53q4 9 4 14q-32 51 -33 86q-20 76 -34 86q-9 0 -9 4q-24 -6 -24 -14v-47q-53 -36 -53 -91q0 -12 -4 -38l4 -10l-14 -24
v-29q-24 -1 -24 -14q-67 0 -67 33q-6 0 -19 29q19 79 53 105q0 53 47 134q0 88 86 115h29zM590 1209l-6 -11q11 0 11 -5q81 -278 81 -310q44 -107 44 -125l-6 -38q49 -138 49 -168q-5 0 -5 -6q9 0 16 -11q22 -157 60 -228q0 -94 49 -114q157 -11 157 -56l-5 -33v-38
q-9 -21 -38 -21q-31 1 -38 1q-107 -16 -196 -16q-68 5 -76 5l-11 -16q-76 4 -76 33v38q0 18 17 38q97 42 97 65v33q-20 135 -54 135h-32l-55 -16q-23 0 -43 11q-171 40 -201 -60q0 -19 16 -49l-22 -59v-28q114 -27 114 -97v-28q-19 -32 -27 -32h-11q-38 11 -43 11
q-14 0 -49 -11q-31 0 -71 32h-16q-55 0 -114 -17l-103 47q5 17 11 17q0 58 86 72q93 21 93 88q49 160 49 195q32 68 70 234q7 82 17 82l38 103q0 65 38 119q0 121 49 174q0 93 81 93q32 0 55 -33zM530 1019q-29 -6 -33 -6q-14 -114 -32 -114q-11 -70 -33 -103l5 -76
q-15 -60 -21 -60q0 -90 -33 -167q5 0 5 -11q0 -14 125 -17q82 -18 82 -9q60 8 60 44v95q-49 120 -76 234l5 38q0 9 -22 60q6 9 6 21v11q-7 60 -38 60z" />
    <glyph glyph-name="Atilde" unicode="&#xc3;" horiz-adv-x="1058" 
d="M366 1549q41 -11 41 -14l8 6h9q54 0 136 -94q10 -32 65 -63l17 -13q67 0 82 28q35 36 46 61v33q0 42 40 42q29 0 29 -46v-5q0 -62 -45 -146q-37 0 -37 -42l-8 -5h-16l-25 5q-32 -14 -42 -14h-15l-54 37l-21 -4h-4q-8 60 -25 60l-8 -4h-12l-63 42h-24q0 28 -58 43
q0 3 -13 14q-73 -41 -94 -105q0 -44 -29 -65h-12q-23 0 -29 94v24q29 31 45 71l45 42q54 18 71 18zM584 1237l-6 -11q11 0 11 -6q81 -286 81 -319q44 -110 44 -129l-6 -39q49 -142 49 -173q-5 0 -5 -6q9 0 16 -12q22 -161 60 -235q0 -97 49 -117q157 -12 157 -58l-5 -34v-39
q-9 -22 -38 -22q-31 1 -38 1q-107 -16 -196 -16q-68 5 -76 5l-11 -17q-76 5 -76 35v39q0 18 17 39q97 43 97 67v34q-20 139 -54 139h-32l-55 -17q-23 0 -43 12q-171 41 -201 -62q0 -20 16 -51l-22 -60v-29q114 -28 114 -100v-29q-19 -33 -27 -33h-11q-38 11 -43 11
q-14 0 -49 -11q-31 0 -71 33h-16q-55 0 -114 -18l-103 49q5 17 11 17q0 60 86 75q93 21 93 90q49 165 49 201q32 70 70 241q7 85 17 85l38 106q0 67 38 123q0 125 49 179q0 96 81 96q32 0 55 -34zM524 1041q-29 -6 -33 -6q-14 -118 -32 -118q-11 -72 -33 -106l5 -78
q-15 -62 -21 -62q0 -93 -33 -172q5 0 5 -11q0 -15 125 -18q82 -18 82 -9q60 8 60 45v98q-49 124 -76 241l5 39q0 10 -22 62q6 10 6 22v11q-7 62 -38 62z" />
    <glyph glyph-name="Adieresis" unicode="&#xc4;" horiz-adv-x="1058" 
d="M230 1542q98 -41 98 -81q-17 -103 -38 -103q-7 -18 -44 -33q-39 0 -92 92q0 6 -5 17q31 108 81 108zM779 1542q46 -15 76 -92q0 -51 -71 -109q-72 32 -76 55l6 11q-22 0 -22 48v6q52 81 87 81zM203 1363v-5l16 -11v5zM502 1282q81 0 81 -97q49 -55 49 -181
q38 -56 38 -123l38 -107q10 0 17 -86q38 -172 70 -243q0 -36 49 -203q0 -69 93 -101q86 -36 86 -96q6 0 11 -18l-103 -28q-59 28 -114 28h-16q-40 -33 -71 -33q-35 11 -49 11q-5 0 -43 -11h-11q-8 0 -27 33v29q0 73 114 101v29l-22 62q16 31 16 51q0 62 -201 62
q-20 -11 -43 -11l-55 16h-32q-34 0 -54 -140v-34q0 -24 97 -68q17 -21 17 -40v-39q0 -30 -76 -34l-11 16q-8 0 -76 -5q-89 0 -196 17q-7 0 -38 -22q-29 0 -38 22v39l-5 35q0 46 157 79q49 20 49 118q38 74 60 237q7 11 16 11q0 7 -5 7q0 31 49 174l-6 40q0 19 44 130
q0 33 81 322q0 5 11 5l-6 12q23 34 55 34zM469 988v-12q0 -12 6 -21q-22 -53 -22 -63l5 -39q-27 -119 -76 -244v-67q0 -38 60 -46q0 -9 82 -22q125 14 125 28q0 12 5 12q-33 69 -33 163q-6 0 -21 62l5 79q-22 35 -33 107q-18 0 -32 119q-4 0 -33 6q-31 0 -38 -62z" />
    <glyph glyph-name="Aring" unicode="&#xc5;" horiz-adv-x="1067" 
d="M525 1722q95 0 119 -38q42 -17 109 -114v-11q-33 -41 -33 -71q11 -20 11 -43q-18 -11 -32 -11h-17q-8 -45 -49 -71q-54 -27 -70 -27q-30 6 -44 6q0 -8 -27 -22l-109 49q-54 115 -54 163v38q41 130 130 130q18 0 66 22zM427 1521q24 -82 103 -82h11l71 38q0 26 -6 55
q6 28 6 54q-57 44 -98 44q-82 0 -82 -60q-5 -20 -5 -49zM498 1266q119 -59 119 -127q82 -220 82 -285q5 0 5 -12q-5 0 -5 -6q10 0 21 -98q22 -102 49 -144q0 -21 49 -109q26 -127 54 -144q6 -10 6 -17q-6 -47 -6 -54q28 -64 28 -72v-11l-6 -12q26 -44 125 -70q44 -10 44 -72
v-17q-9 -22 -38 -22h-33q-14 0 -65 16h-6q-79 -10 -87 -10h-119q-88 4 -93 49q7 25 49 44q55 52 55 77q-11 149 -38 149l-93 33q-16 0 -49 -21q-27 16 -54 16h-76q-51 0 -60 -94v-6q11 -27 11 -38l-5 -39q0 -6 32 -43q-5 0 -5 -6l11 6q37 -17 49 -56q0 -37 -60 -61
q-1 -7 -27 -21h-71q-6 0 -60 11h-21q-28 -2 -28 -11l-65 5h-27l-33 -5q-31 0 -54 77q46 88 158 88q70 102 70 220q17 0 38 122q0 44 44 126q0 94 27 160q0 19 87 291q18 161 54 161l-5 11q0 8 22 21zM454 770v-21q0 -6 5 -6q0 -11 -48 -143q0 -38 10 -38q-10 -22 -10 -61
q0 -43 125 -61q12 -16 38 -16q48 0 92 77q-11 27 -33 187q-26 0 -54 204q-25 50 -60 50q-65 -50 -65 -172z" />
    <glyph glyph-name="AE" unicode="&#xc6;" horiz-adv-x="1627" 
d="M1218 1280q50 -16 60 -16q33 16 38 16q156 0 185 -116l43 -221v-33q-7 -66 -43 -66q-25 0 -65 50q-17 0 -33 21q0 20 33 106v16q0 57 -158 111q-10 -6 -16 -6q0 6 -6 6q0 -11 -10 -11h-33q-30 0 -49 38l-33 5h-21q-35 -27 -44 -27q-17 0 -103 5q-76 -20 -76 -77v-5
l11 -73q0 -2 -11 -88q11 -35 11 -44q-6 -46 -6 -72q49 -55 93 -55h21q6 0 6 5l11 -5h27q76 18 76 66q0 111 49 111q0 22 32 22q22 0 49 -72l-16 -199q16 -73 16 -193q-14 -37 -32 -44q0 5 -6 5v-5q6 0 6 -6q-20 -16 -38 -16h-11q0 9 -38 44q0 125 -60 165l-65 6h-6
q-97 0 -97 -61v-82q0 -15 11 -34q-6 -54 -6 -83q11 -27 16 -132l-5 -11q5 -23 27 -23q6 0 44 34h10q50 -16 109 -22q43 -39 92 -39q34 11 55 11l11 -5q65 0 76 82q14 0 27 45q0 12 -6 21q6 139 33 139q14 27 44 27h27q81 0 81 -127q-16 -40 -49 -303q-16 -22 -21 -22
q-4 0 -33 5q-13 0 -49 -28h-11q-36 0 -38 23q-5 0 -5 -6l-27 6q-37 -23 -60 -23q-14 0 -93 23q-40 -28 -70 -28q-18 0 -93 5q-17 -11 -32 -11q-41 28 -125 28q-71 -39 -136 -39q0 5 -16 17q-18 -11 -33 -11h-11q-11 11 -108 22l-33 39v10q0 67 87 100l49 6q54 -11 98 -11
q27 14 27 50l-6 11l6 10q-6 39 -6 61v34h-10q-53 11 -60 11h-76l-11 5v-5l-11 5q-39 -16 -65 -16q-27 16 -44 16h-27q-66 0 -103 -171q24 -35 81 -50q22 -24 22 -27q0 -84 -71 -84h-21q0 17 -27 17q-44 -1 -44 -11l-11 6q-201 5 -201 16q-50 -22 -70 -22l-17 11q0 91 33 105
q48 28 76 28q5 0 5 -6q131 31 131 94q0 17 76 155q40 135 65 138v16q9 34 76 150v11q0 5 -5 5q10 51 59 122q33 87 115 243q27 61 27 71l-93 -32q-49 23 -49 88q0 37 98 44h82l32 -5q23 11 33 11q98 -7 119 -17zM664 949q6 -12 6 -17q-44 -41 -44 -111q-79 -161 -125 -231
l-16 -89q12 -9 81 -38q11 5 17 5q17 -11 27 -11v6l11 -6h5l27 6v-6q18 11 33 11h49q5 0 5 -5q35 14 38 27v16q0 12 -11 56q9 66 17 66q-11 19 -17 100q17 37 17 50v10q0 14 -11 50l5 50l-21 77q3 38 10 38q0 34 -38 34q-47 0 -65 -88z" />
    <glyph glyph-name="Egrave" unicode="&#xc8;" 
d="M477 1665l20 -43q7 0 39 -24q22 -28 28 -28q40 -52 72 -52q16 -59 32 -59q3 -43 19 -63q0 -20 -11 -24h-52q-34 0 -47 32q-48 10 -48 28q-63 60 -63 78q-107 49 -111 132q18 55 52 55h8q43 -20 62 -32zM848 1265q139 -14 171 -43q27 -33 27 -38q-5 0 -5 -6q22 0 35 -250
v-32q-7 -66 -43 -66h-6q-18 0 -60 49q-16 0 -32 22v11l32 92v17q0 54 -141 103q0 5 -11 5q-35 -11 -49 -11h-11q-43 0 -70 49q-49 -5 -87 -32q-17 0 -103 5q-18 -11 -33 -11q0 6 -5 6v-6q5 0 5 -5q-35 0 -43 -49v-6q10 -79 10 -87v-5q0 -7 -10 -60v-11l10 -38q-5 -68 -5 -81
q48 -54 92 -54h22q6 0 6 5l10 -5h28q76 16 76 65q0 108 43 108q9 22 38 22q25 0 39 -76q4 -185 4 -190q11 -23 -4 -179q0 -32 -44 -76h-22q-54 27 -54 141q-26 70 -87 70h-33q-108 0 -108 -59v-49q0 -54 -5 -131q17 -49 22 -49q-17 -36 -17 -59q0 -71 54 -71q6 0 43 -17
q147 6 147 -14q42 4 60 4l27 5q0 -5 5 -5v11h38v-11h6q0 9 49 27q23 18 42 71q11 0 17 32q0 6 -6 17q6 37 6 59v44q25 65 60 65h49v-11l11 6q42 -16 49 -115q-27 -112 -39 -294q-16 -22 -22 -22l-38 6q-36 -27 -64 -27h-11l5 11q-10 -6 -16 -6q-29 16 -49 16l-38 -21h-11
q-34 0 -97 21q-50 -27 -77 -27q-228 14 -228 38l-54 -21q-6 0 -54 16l-22 -49h-27q-27 16 -27 33h-28q-21 -17 -32 -17q-88 0 -114 44v16q0 77 130 93h5q52 -11 82 -11h5q38 0 38 44l-10 190q21 42 21 54q0 37 -5 66q5 106 16 152q-11 60 -16 60l5 10v33l-5 33q16 32 16 103
v141q0 87 -70 87q-34 5 -77 5q-21 0 -76 -27q-54 24 -54 76v17q20 38 109 38q63 0 146 -6q38 6 60 6q45 -6 55 -11l331 22q50 -17 60 -17q38 17 38 22z" />
    <glyph glyph-name="Eacute" unicode="&#xc9;" 
d="M775 1720h8q35 0 55 -58q-15 0 -38 -80q-18 -22 -42 -30q0 5 -4 5q0 -8 -63 -34q0 -20 -67 -83q0 -18 -50 -29q-14 -34 -50 -34h-55q-12 5 -12 25q17 21 21 67q17 0 34 63q33 0 75 104q7 0 29 29q35 26 42 26l20 -5q21 12 97 34zM848 1265q109 -14 141 -43q27 -33 27 -38
q-5 0 -5 -6q22 0 65 -250v-32q-7 -66 -43 -66h-6q-18 0 -60 49q-16 0 -32 22v11l32 92v17q0 54 -141 103q0 5 -11 5q-35 -11 -49 -11h-11q-43 0 -70 49q-49 -5 -87 -32q-17 0 -103 5q-18 -11 -33 -11q0 6 -5 6v-6q5 0 5 -5q-35 0 -43 -49v-6q10 -79 10 -87v-5q0 -7 -10 -60
v-11l10 -38q-5 -68 -5 -81q48 -54 92 -54h22q6 0 6 5l10 -5h28q76 16 76 65q0 108 43 108q9 22 38 22q25 0 49 -76q-16 -185 -16 -190q11 -23 16 -179q0 -32 -54 -76h-22q-54 27 -54 141q-26 70 -87 70h-33q-98 0 -98 -59v-49q0 -54 -5 -131q17 -49 22 -49q-17 -36 -17 -59
q0 -71 44 -71q6 0 43 33q147 -24 147 -44q42 -16 60 -16l27 5q0 -5 5 -5v11h38v-11h6q0 9 49 27q13 18 32 71q11 0 17 32q0 6 -6 17q6 37 6 59v44q35 65 70 65h49v-11l11 6q42 -16 49 -115q-27 -112 -49 -304q-16 -22 -22 -22l-38 6q-36 -27 -54 -27h-11l5 11q-10 -6 -16 -6
q-29 16 -49 16l-38 -21h-11q-34 0 -97 21q-50 -27 -77 -27q-228 14 -228 38l-54 -21q-6 0 -54 16l-22 -49h-27q-27 16 -27 33h-28q-21 -17 -32 -17q-88 0 -114 44v16q0 87 130 103h5q52 -11 82 -11h5q38 0 38 44l-10 190q21 42 21 54q0 37 -5 66q5 106 16 152q-11 60 -16 60
l5 10v33l-5 33q16 32 16 103v141q0 87 -70 87q-34 5 -77 5q-21 0 -76 -27q-54 24 -54 76v17q20 38 109 38q63 0 146 -6q38 6 60 6q45 -6 55 -11l331 22q50 -17 60 -17q38 17 38 22z" />
    <glyph glyph-name="Ecircumflex" unicode="&#xca;" 
d="M566 1714q34 0 34 -43q12 0 38 -91q62 -33 62 -72q5 0 5 -4v-29q0 -35 57 -100l9 -15q0 -32 -33 -57q-4 0 -4 5l-10 -5h-10q-71 11 -71 19q0 15 -19 53q4 9 4 14q-32 51 -33 86q-20 76 -34 86q-9 0 -9 4q-24 -6 -24 -14v-47q-53 -36 -53 -91q0 -12 -4 -38l4 -10l-14 -24
v-29q-24 -1 -24 -14q-67 0 -67 33q-6 0 -19 29q19 79 53 105q0 53 47 134q0 88 86 115h29zM853 1246q142 -24 142 -55q34 0 70 -244q11 0 11 -38v-33q0 -65 -49 -65q-11 0 -76 60q-16 0 -16 11v11l33 92v16q0 55 -142 103q0 6 -11 6q-35 -11 -48 -11h-22q-32 0 -49 38l-33 6
h-21q-35 -28 -44 -28q-22 0 -98 6l-27 -6q0 6 -5 6v-6q5 0 5 -5q-54 -15 -54 -54v-17q11 -53 11 -59l-11 -98q11 -35 11 -44q-6 -46 -6 -70q45 -55 93 -55h10q13 0 22 6q10 -6 22 -6h11q76 17 76 71q0 110 81 125q25 0 49 -76l-16 -190q11 -24 16 -180q-24 -76 -70 -76h-6
q-54 28 -54 142q-22 65 -76 65q0 5 -38 5h-6q-97 0 -97 -70v-38q0 -54 -6 -131l22 -49q-16 -37 -16 -60q0 -70 48 -70q33 20 33 32h16q50 -16 109 -21q43 -38 92 -38q36 10 49 10h17q5 0 5 -5q55 0 76 87q9 0 22 33q0 12 -6 21q0 130 44 158q8 0 22 11h21q74 0 87 -49
q11 -52 11 -76q-26 -99 -49 -299q-16 -22 -22 -22l-38 6q-36 -28 -54 -28q-62 22 -71 22l-38 -22h-10q-35 0 -98 22q-50 -27 -76 -27q-114 0 -114 16q-6 0 -6 -5q-81 0 -109 27h-10l-33 -22h-11q-16 0 -43 17q-9 0 -38 -49h-22q-27 15 -27 32h-27q-21 -16 -33 -16
q-88 0 -114 44v16q0 62 76 92q9 6 49 11q65 -11 98 -11q31 0 38 44l-11 190q22 42 22 54q0 30 -6 60q7 121 16 158q-10 59 -16 59l6 27v17l-6 32q16 33 16 104v141q0 87 -70 87q-36 5 -71 5q-27 0 -81 -27q-35 0 -55 76v16q23 38 98 38h6q80 0 152 -5q38 5 65 5q10 0 43 -10
q30 5 49 5h44l11 -5q1 10 10 10h49q36 0 109 6q0 -6 5 -6q2 11 11 11h22q28 0 87 -16q29 10 43 22z" />
    <glyph glyph-name="Edieresis" unicode="&#xcb;" 
d="M324 1556q103 -19 103 -94q0 -57 -70 -112q-10 -6 -22 -6h-49l-33 -5q-38 0 -38 105q0 37 38 62q0 -5 6 -5l-6 10q0 38 71 45zM851 1556h6q103 -36 103 -89q0 -111 -103 -140q-11 6 -17 6l-27 -6q-71 19 -71 73q-5 0 -5 17v6q21 133 114 133zM853 1268q142 -24 142 -56
q34 0 70 -250q11 0 11 -39v-34q0 -67 -49 -67q-11 0 -76 62q-16 0 -16 11v11l33 95v16q-19 152 -142 106q0 6 -11 6q-35 -12 -48 -12h-22q-32 0 -49 39l-33 7h-21q-35 -29 -44 -29q-22 0 -98 6l-27 -6q0 6 -5 6v-6q5 0 5 -5q-54 -16 -54 -56v-17q11 -54 11 -61l-11 -100
q11 -36 11 -45q-6 -47 -6 -72q45 -56 93 -56h10q13 0 22 6q10 -6 22 -6h11q106 17 106 72q0 113 51 129q25 0 49 -78l-16 -195q11 -25 16 -185q-24 -78 -40 -78h-6q-54 29 -54 146q-22 67 -106 67q0 5 -38 5h-6q-97 0 -97 -72v-39q0 -55 -6 -134l22 -51q-16 -38 -16 -61
q0 -72 48 -72q33 -10 33 2h16q50 -16 109 9q43 -39 92 -39q36 11 49 11h17q5 0 5 -5q95 0 116 89q9 0 22 34q0 12 -6 21q0 133 44 162q-32 0 -18 11h21q74 0 87 -50q11 -53 11 -78q-26 -101 -49 -306q-16 -23 -22 -23l-38 6q-36 -28 -54 -28q-62 22 -71 22l-38 -22h-10
q-35 0 -98 22q-50 -28 -76 -28q-114 0 -114 17q-6 0 -6 -5q-81 -21 -109 7h-10l-33 -23h-11q-16 21 -43 38q-9 0 -38 -50h-22q-27 15 -27 33h-27q-21 -17 -33 -17q-88 0 -114 46v16q0 64 76 94q9 6 49 12q65 -12 98 -12q31 0 38 45l-11 195q22 43 22 56q0 30 -6 61
q7 124 16 162q-10 61 -16 61l6 27v18l-6 33q16 33 16 106v145q0 89 -70 89q-36 5 -71 5q-27 0 -81 -28q-35 0 -55 78v17q23 39 98 39h6q80 0 152 -5q38 5 65 5q10 0 43 -11q30 6 49 6h44l11 -6q1 11 10 11h49q36 0 109 6q0 -6 5 -6q2 11 11 11h22q28 0 87 -16q29 10 43 22z
" />
    <glyph glyph-name="Igrave" unicode="&#xcc;" horiz-adv-x="1008" 
d="M412 1690q47 -10 47 -23v-14l-4 -10l52 -28q0 -57 43 -81q0 -49 33 -71q9 -12 38 -96q-20 -33 -29 -33h-28q-36 53 -52 53q-81 80 -110 90q-86 74 -86 109q12 129 39 129h33q24 -18 24 -25zM271 1289q81 -11 196 -11h22q22 0 59 5q33 -8 109 -21q79 5 87 5q41 -11 49 -11
l38 16q109 -20 109 -59q12 0 16 -71q-20 -11 -44 -11q-11 0 -59 6l-82 -22q-46 5 -76 5h-43q-82 0 -82 -32v-11q11 -50 11 -55q-5 -56 -5 -65q5 -38 5 -43q-11 -39 -11 -60q11 -48 11 -65q-11 -34 -11 -55q0 -97 11 -228l-5 -11v-38q0 -7 4 -19.5t-4 -29.5v-10q0 -5 10 -44
v-5q0 -7 -10 -60q10 -49 10 -71v-38l6 -11q-11 -1 -11 -10h5v5q18 -11 33 -11q29 18 92 33q99 -17 191 -65q43 -7 43 -44v-22q0 -20 -27 -49q5 0 5 -5q-13 -11 -16 -11l-11 6v-6q6 0 6 -5h-6q-18 0 -76 11q-28 -17 -54 -17q-3 0 -55 17q-32 -11 -32 -17l-11 6h-87
q-12 0 -22 -6q-40 15 -179 27q-47 -21 -54 -21q-32 21 -55 21q-37 0 -87 -32q-108 0 -108 70v17q0 32 38 70q0 38 32 38l60 -16q73 16 152 27l55 -11q0 8 16 17q-6 48 -6 59q10 68 22 82h-11v16l-5 33q10 24 16 125q11 0 11 22q-33 59 -38 87q22 46 22 59v6l-11 38
q11 137 38 331v17q0 33 -54 43q-54 49 -142 49q-53 -33 -70 -33h-6q-49 11 -70 11q-6 0 -6 -5l-22 11l22 119q29 33 152 33z" />
    <glyph glyph-name="Iacute" unicode="&#xcd;" horiz-adv-x="1010" 
d="M685 1698h33q27 0 39 -120q0 -33 -86 -102q-29 -9 -110 -84q-16 0 -52 -49h-28q-9 0 -29 31q29 78 38 89q33 21 33 66q43 23 43 76l52 26l-4 9v13q0 12 47 22q0 6 24 23zM913 1256l22 -119l-22 -11q0 5 -6 5q-21 0 -70 -11h-6q-17 0 -70 13q-88 20 -142 -29
q-34 0 -34 -33v-17q7 -204 18 -341l-11 -38v-6q0 -13 2 -59q-5 -28 -18 -87q0 -22 11 -22q6 -101 16 -125l-5 -33v-16h-11q12 -14 22 -82q0 -11 -6 -59q16 -9 16 -17l55 11q79 -11 152 13l60 -4q32 0 32 -38q38 -38 38 -70v-17q0 -70 -108 -70q-50 12 -87 12q-23 0 -55 -21
q-7 0 -54 21q-139 -12 -179 -27q-10 6 -22 6h-87l-11 -6q0 6 -32 17q-52 -17 -55 -17q-26 0 -54 17q-58 -11 -76 -11h-6q0 5 6 5v6l-11 -6q-3 0 -16 11q0 5 5 5q-27 29 -27 49v22q0 37 43 44q92 48 191 25q63 25 92 7q15 0 33 11v-5h5q0 9 -11 10l6 11v38q0 22 10 71
q-10 53 -10 60v5q10 39 10 44v10q-8 17 -16 17q-18 0 -38 -71h-16q0 6 -6 16q11 20 11 44v27q17 0 17 11q10 0 32 -11q16 9 16 16v38l-5 11q-41 0 -54 104q0 9 11 27q54 0 54 97q0 21 -11 55q0 17 11 65q0 21 -11 60q0 5 5 43q0 9 -5 65q0 5 11 55v11q0 32 -82 32h-43
q-30 0 -76 -5l-82 22q-48 -6 -59 -6q-24 0 -44 11q4 91 16 91q0 39 109 59l38 -16q8 0 49 11q8 0 87 -25q76 13 109 21q37 -5 59 -5h22q115 0 196 11q123 0 152 -33zM429 691q-12 -16 -16 -16h-5l-17 11q17 40 17 65h5q11 0 16 -60zM391 284v-11q0 -31 -27 -38q-5 0 -11 16
q10 49 27 49z" />
    <glyph glyph-name="Icircumflex" unicode="&#xce;" horiz-adv-x="976" 
d="M472 1705q83 -24 83 -104q46 -72 46 -119q32 -24 50 -94q-12 -26 -18 -26q0 -30 -64 -30q0 11 -23 12v26l-14 22l5 8q-5 25 -5 35q0 49 -50 81v43q0 7 -23 12q0 -3 -9 -3q-14 -9 -32 -78q-2 -31 -32 -77q0 -3 4 -13q-19 -33 -19 -46q0 -8 -68 -17h-9l-10 3q0 -3 -4 -3
q-32 22 -32 51l9 12q55 60 55 90v26q0 5 4 5q0 34 60 64q25 82 37 82q0 38 32 38h27zM881 1256l22 -119l-22 -11q0 5 -6 5q-21 0 -70 -11h-6q-17 0 -70 33q-88 0 -142 -49q-54 -10 -54 -43v-17q27 -194 38 -331l-11 -38v-6q0 -13 22 -59q-5 -28 -38 -87q0 -22 11 -22
q6 -101 16 -125l-5 -33v-16h-11q12 -14 22 -82q0 -11 -6 -59q16 -9 16 -17l55 11q79 -11 152 -27l60 16q32 0 32 -38q38 -38 38 -70v-17q0 -70 -108 -70q-50 32 -87 32q-23 0 -55 -21q-7 0 -54 21q-139 -12 -179 -27q-10 6 -22 6h-87l-11 -6q0 6 -32 17q-52 -17 -55 -17
q-26 0 -54 17q-58 -11 -76 -11h-6q0 5 6 5v6l-11 -6q-3 0 -16 11q0 5 5 5q-27 29 -27 49v22q0 37 43 44q92 48 191 65q63 -15 92 -33q15 0 33 11v-5h5q0 9 -11 10l6 11v38q0 22 10 71q-10 53 -10 60v5q10 39 10 44v10q-8 17 -16 17q-18 0 -38 -71h-16q0 6 -6 16q11 20 11 44
v27q17 0 17 11q10 0 32 -11q16 9 16 16v38l-5 11q-41 0 -54 104q0 9 11 27q54 0 54 97q0 21 -11 55q0 17 11 65q0 21 -11 60q0 5 5 43q0 9 -5 65q0 5 11 55v11q0 32 -82 32h-43q-30 0 -76 -5l-82 22q-48 -6 -59 -6q-24 0 -44 11q4 71 16 71q0 39 109 59l38 -16q8 0 49 11
q8 0 87 -5q76 13 109 21q37 -5 59 -5h22q115 0 196 11q123 0 152 -33z" />
    <glyph glyph-name="Idieresis" unicode="&#xcf;" horiz-adv-x="1008" 
d="M197 1592q98 -40 98 -80q-17 -101 -38 -101q-7 -18 -44 -33q-39 0 -92 91q0 6 -5 17q31 106 81 106zM746 1592q46 -15 76 -91q0 -50 -71 -107q-72 32 -76 54l6 11q-22 0 -22 47v6q52 80 87 80zM170 1416v-5l16 -11v5zM913 1267l22 -117l-22 -11q0 5 -6 5q-21 0 -70 -11
h-6q-17 0 -70 32q-88 0 -142 -48q-54 -10 -54 -42v-17q27 -191 38 -326l-11 -37v-6q0 -13 22 -58q-5 -28 -38 -86q0 -22 11 -22q6 -99 16 -123l-5 -32v-16h-11q12 -14 22 -81q0 -11 -6 -58q16 -9 16 -17l55 11q79 -11 152 -27l60 16q32 0 32 -37q38 -38 38 -69v-17
q0 -69 -108 -69q-50 32 -87 32q-23 0 -55 -21q-7 0 -54 21q-139 -12 -179 -27q-10 6 -22 6h-87l-11 -6q0 6 -32 17q-52 -17 -55 -17q-26 0 -54 17q-58 -11 -76 -11h-6q0 5 6 5v6l-11 -6q-3 0 -16 11q0 5 5 5q-27 28 -27 48v21q0 37 43 44q92 47 191 64q63 -15 92 -33
q15 0 33 11v-5h5q0 9 -11 10l6 11v37q0 22 10 70q-10 53 -10 59v5q10 39 10 44v10q-8 16 -16 16q-18 0 -38 -70h-16q0 6 -6 16q11 20 11 43v27q17 0 17 11q10 0 32 -11q16 9 16 16v37l-5 11q-41 0 -54 103q0 8 11 26q54 0 54 96q0 20 -11 54q0 17 11 64q0 21 -11 59
q0 5 5 42q0 9 -5 64q0 5 11 55v10q0 32 -82 32h-43q-30 0 -76 -5l-82 22q-48 -6 -59 -6q-24 0 -44 11q4 70 16 70q0 38 109 58l38 -16q8 0 49 11q8 0 87 -5q76 13 109 21q37 -5 59 -5h22q115 0 196 10q123 0 152 -32z" />
    <glyph glyph-name="Ntilde" unicode="&#xd1;" horiz-adv-x="1164" 
d="M396 1668q48 -11 48 -14l10 5h10q64 0 161 -98q13 -32 78 -64l20 -14q79 0 97 28q43 38 54 64v25q0 44 49 24q34 0 34 -49v-5q0 -53 -53 -142q-44 0 -44 -44l-10 -4h-20l-29 4q-38 -14 -49 -14h-19l-64 39l-24 -5h-5q-9 63 -29 63l-10 -4h-15l-73 44h-30q0 29 -68 44
q0 3 -15 14q-87 -42 -112 -108q-20 -7 -54 -28h-15q-28 0 -14 78v24q35 33 53 74l54 44q63 19 84 19zM243 1270q157 17 157 -15q44 -9 82 -119q19 -10 27 -32q-11 -19 -11 -34q0 -13 22 -54q-6 0 -6 -6q23 0 98 -199q0 -11 38 -61q0 -27 55 -156l5 -27q-5 0 -5 -6h5q0 6 5 6
q38 -47 38 -89q60 -123 60 -150h27l11 -6q27 51 21 150q-17 54 -22 56q6 10 6 16q0 73 -16 139q10 93 10 105q0 17 -10 44l5 39q5 81 5 89t16 56q-17 126 -71 126h-22l-52 -6q-76 10 -76 62v11q0 61 141 61h44q282 -6 342 -11q27 -45 27 -53v-18q0 -14 -43 -62l-55 16h-22
q-5 0 -5 -6q-33 12 -43 12q-20 0 -33 -44q-49 -19 -49 -28v-17q0 -33 33 -54v-6q-24 0 -28 -155q11 -22 11 -39q-11 -36 -11 -50v-128l-6 -33q13 -118 33 -183v-11q-22 -29 -22 -50q16 0 33 -305q0 -39 -76 -55h-11q-114 46 -114 116q0 8 -59 117q0 38 -49 100
q-16 56 -44 99l6 29q0 27 -27 77q5 0 5 5q-27 2 -65 111q0 84 -44 100q-68 231 -114 231q0 11 -11 11l6 39q0 38 -16 42h-11l-6 -37v-5q4 -34 17 -34q0 -28 -22 -147v-28l5 -33q-5 -9 -5 -28q0 -16 22 -61q-11 -53 -11 -83q0 -17 5 -39q-5 -48 -5 -83v-33q16 -66 21 -167
q-5 -27 -5 -72v-11l-5 -11q29 -43 81 -61l54 5q66 -61 66 -105q0 -15 -55 -28q0 -16 -76 -22l-152 22q-69 -6 -92 -16q-110 34 -120 44q-11 18 -11 28q0 12 27 66h6q26 0 54 -5q85 0 103 72v17q0 28 -5 111q11 57 11 60q-11 44 -11 68q5 49 5 60q-10 19 -16 56
q16 123 16 233l-5 50q7 83 11 94l-6 33v22q11 91 11 98q0 10 -11 45q6 0 6 6h-6q0 -6 -5 -6q-9 23 -38 23q-35 -11 -79 -1q-62 0 -71 55v11q0 40 172 40z" />
    <glyph glyph-name="Ograve" unicode="&#xd2;" horiz-adv-x="1111" 
d="M435 1637l17 6q5 1 33 -16q18 -22 23 -21q34 -78 60 -75q14 -48 27 -46q3 -37 16 -51q0 -17 -9 -22l-43 -5q-30 -4 -40 22q-40 3 -40 18q-53 43 -53 59q-51 14 -51 20q-3 0 -3 -4q-18 4 -33 19q-19 61 -30 60q15 48 44 52l6 1q60 -10 76 -17zM519 1305l22 -6q29 6 49 6
q74 0 239 -92q136 -197 136 -240q48 -138 48 -271q-10 -53 -10 -158v-27q0 -16 -17 -43q6 -30 6 -44q-6 -69 -76 -141q0 -15 -44 -114v-6l-11 6l6 -11q-17 -15 -44 -65l-125 -49q-33 -60 -87 -60q-13 0 -49 11l-103 -11q-66 27 -119 87q-44 28 -44 33q6 0 6 5l-11 -5
q-45 21 -71 65q-35 23 -65 98q-60 101 -60 233q6 38 11 49q-5 12 -11 49q10 19 16 120l-5 32l38 223q60 111 109 163q0 57 60 76q126 87 206 87zM209 827l-11 5q0 -5 6 -5q-11 -55 -11 -114l5 -11q-10 -31 -10 -87q16 -36 27 -163q38 -24 38 -120q38 -78 103 -152
q-5 0 -5 -5l10 5q99 -65 131 -65q66 22 76 22l27 -6q11 6 16 6q0 -6 6 -6q0 17 70 38q147 113 147 191q11 0 27 86q19 14 44 174q0 10 -17 49l6 27l-11 142q5 10 5 16q-24 79 -97 217q0 22 -27 27l5 11l-11 -5q-54 71 -114 71q-13 0 -43 16q-36 -11 -49 -11h-6q-35 0 -76 11
q-9 0 -54 -49q-57 -15 -87 -54q-24 -9 -60 -76q-24 -120 -43 -120q-17 -11 -17 -65z" />
    <glyph glyph-name="Oacute" unicode="&#xd3;" horiz-adv-x="1082" 
d="M667 1685h32q26 0 38 -124q0 -34 -83 -105q-28 -9 -106 -87q-16 0 -51 -51h-26q-8 0 -28 32q28 81 37 92q32 22 32 68q41 24 41 79l51 27l-5 9v14q0 12 46 23q0 6 22 23zM595 1259q146 -20 146 -49q26 0 109 -71q30 -2 65 -81q-5 0 -5 -6q11 0 43 -60q8 0 17 -16
q-6 0 -6 -5q15 0 38 -87q6 0 11 -17q0 -32 11 -282l-6 -38q6 -29 6 -49q0 -11 -16 -76l10 -44l-38 -65q0 -90 -54 -130q0 -33 -65 -87q-61 -71 -98 -71h-38q-57 -30 -103 -70q0 5 -6 5v-5q6 0 6 -6h-6q-19 0 -43 22h-71q-40 0 -43 16l-11 -5h-33q-19 15 -76 22l-76 70
q-60 28 -60 76q-76 104 -76 142q-16 84 -16 103v27q0 54 5 130l-21 38v22q0 5 11 44q0 6 -6 54q11 20 11 43v82q20 26 54 114l-5 27q20 38 43 38q0 6 -5 6q0 7 81 108q0 17 11 17l-5 10q15 13 60 22q0 40 152 55v-6zM182 797v-33q-17 -24 -17 -38l6 -38l-6 -54l17 -27v-6
q0 -6 -17 -54q36 -58 49 -147q25 -7 33 -87q19 -10 49 -81q22 0 81 -71q34 0 87 -60l125 -27q103 25 152 82q61 34 87 114l22 22q0 -6 5 -6q-5 11 -5 16q16 28 16 44v38q33 39 33 49q5 10 5 16q-5 37 -5 60q0 21 27 98q-18 158 -54 212h-6l6 54v33q0 9 -44 92q6 0 6 5h-6
q0 -5 -5 -5q-43 98 -98 98q-34 13 -130 38q0 8 -22 21h-76q-59 0 -114 -65q-46 -8 -114 -130q-50 0 -87 -163zM850 759l5 -11q0 -11 -10 -11h-6v11q2 11 11 11z" />
    <glyph glyph-name="OE" unicode="&#x152;" horiz-adv-x="1732" 
d="M595 1274l87 -16l11 5h22q87 0 168 -5q38 5 60 5q10 0 44 -12l336 23q50 -16 60 -16q33 16 38 16q156 0 185 -117l43 -224v-34q-7 -66 -43 -66q-25 0 -65 50q-17 0 -33 22q0 20 33 107v16q0 58 -158 112q-10 -6 -16 -6q0 6 -6 6q0 -11 -10 -11h-33q-30 0 -49 39l-32 5
h-22q-35 -28 -44 -28q-17 0 -103 6q-76 -21 -76 -79v-5q11 -59 11 -78v-23q0 -11 -11 -11l5 -11q0 -5 -5 -5q27 -44 27 -173q33 -34 71 -34h22q5 0 5 5l11 -5h27q76 17 76 67q0 112 49 112q0 22 33 22q21 0 48 -73l-16 -201q16 -74 16 -196q-14 -37 -32 -44q0 5 -6 5v-5
q6 0 6 -6q-20 -17 -38 -17h-11q0 10 -38 45q0 126 -60 167l-65 6h-5q-63 0 -93 -34l6 -39q-11 -75 -11 -94v-6q0 -13 5 -22q-11 -23 -11 -39q17 -50 17 -73q-11 -36 -11 -51q0 -73 43 -73q6 0 44 34h11q49 -16 108 -22q43 -39 93 -39q33 11 54 11l11 -5q65 0 76 83
q14 0 27 45q0 13 -5 22q5 140 32 140q14 28 44 28h27q81 0 81 -129q-16 -40 -49 -307l-21 -22q-4 0 -33 5q-13 0 -49 -28h-11q-36 0 -38 23q-5 0 -5 -6l-27 6q-37 -23 -60 -23q-14 0 -92 23q-42 -28 -66 -28q-233 12 -233 39h-11l-22 -17h-5v6l5 11q-49 7 -49 17
q-20 -12 -43 -12h-49q-38 -18 -65 -44q-36 0 -104 16q0 -11 -10 -11h-11q-18 0 -38 17h-60q-26 0 -158 28q-16 0 -92 79q-48 0 -76 106q-24 0 -60 89q0 26 -16 101v33q0 55 5 135l-22 39v16q0 5 11 44l-5 51q11 20 11 45v78q54 89 54 123l-5 11q20 39 43 39q0 6 -5 6
q0 10 81 106q0 32 38 39v6l11 -6l54 46q16 0 109 16h33q20 19 70 28zM166 754l6 -39q-6 -31 -6 -50l16 -28l-10 -39l-11 5l43 -117q0 -28 44 -101l-6 -11l55 -106q30 0 59 -51q74 -31 104 -73q8 0 21 -10l11 5q82 -23 98 -23q101 23 174 96q27 9 92 139q10 12 16 79
q6 0 17 22q0 27 -6 56q7 119 17 162q-11 62 -17 62l6 28v16l-6 34q6 11 6 16l-22 18l5 55v28q0 24 -97 174q-45 22 -136 39q0 5 -6 5q0 -5 -5 -5v5l-11 -5q-42 33 -60 33h-59q-87 -12 -87 -44q-49 -11 -120 -107q0 -28 -60 -61q-54 -108 -54 -185q-11 0 -11 -22zM845 782
q11 -2 11 -11l-11 -5q-11 0 -11 10z" />
    <glyph glyph-name="Ocircumflex" unicode="&#xd4;" horiz-adv-x="1065" 
d="M578 1688q83 -24 83 -102q46 -71 46 -118q32 -23 50 -93q-12 -25 -18 -25q0 -30 -64 -30q0 11 -23 12v26l-14 21l5 8q-5 24 -5 34q0 49 -50 81v42q0 7 -23 12q0 -4 -9 -4q-14 -8 -32 -76q-2 -31 -32 -76q0 -3 4 -13q-19 -33 -19 -46q0 -7 -68 -16h-9l-10 3q0 -3 -4 -3
q-32 22 -32 50l9 12q55 59 55 89v26q0 4 4 4q0 34 60 64q25 80 37 80q0 38 32 38h27zM546 1270q12 0 65 -33q130 0 130 -32h6q0 5 5 5q5 -14 71 -43q28 -23 81 -125q35 -39 71 -196q22 -39 22 -81v-11q0 -20 -6 -49q6 -11 6 -16h-11v-6q21 0 21 -38q0 -6 -10 -60v-5
q0 -37 5 -65q0 -74 -33 -131q0 -56 -114 -271q-60 -18 -76 -66l-27 -10q-9 5 -22 5q-18 0 -54 -38q-27 -5 -27 -11l-33 6l-49 -6q-38 16 -54 16l-44 -16l-119 49q0 8 -11 22l6 11h-6q0 -6 -5 -6q0 13 -66 54q-130 125 -130 250q-15 26 -43 120q10 31 10 71q0 19 -5 49
q0 32 38 255q0 95 60 136q17 14 49 103q103 43 103 109q18 16 152 32q0 6 44 22zM247 900q0 6 -6 6l6 -11q-38 -104 -38 -223l5 -49q-16 -39 -16 -49q34 -92 43 -168q7 -5 33 -87q104 -168 168 -168q62 0 76 -22h11q29 0 109 22q0 -6 5 -6v6q-5 0 -5 5q78 15 87 27
q0 42 60 76q108 143 108 283q6 21 6 43q0 44 -6 104q6 29 6 43q-15 39 -27 141q-42 36 -66 120q6 0 6 5h-6q0 -5 -5 -5q-8 43 -103 87q0 27 -104 60q0 10 -21 10q-16 0 -147 -48q-46 0 -147 -125q-9 0 -21 -71z" />
    <glyph glyph-name="Otilde" unicode="&#xd5;" horiz-adv-x="1065" 
d="M381 1615q45 -10 45 -13l9 5h9q60 0 150 -92q12 -30 73 -59l19 -14q74 0 90 27q40 35 51 60v32q0 41 45 41q32 0 32 -46v-5q0 -58 -50 -141q-41 0 -41 -41l-9 -4h-18l-27 4q-36 -13 -46 -13h-18l-59 36l-23 -4h-5q-8 59 -27 59l-9 -5h-14l-68 41h-28q0 27 -64 41
q0 4 -13 14q-81 -40 -105 -101q0 -43 -32 -63h-13q-26 0 -32 91v23q33 30 49 68l51 41q58 18 78 18zM546 1275q12 0 65 -33q130 0 130 -32h6q0 5 5 5q5 -14 71 -43q28 -23 81 -125q35 -39 71 -196q22 -39 22 -81v-11q0 -20 -6 -49q6 -11 6 -16h-11v-6q21 0 21 -38
q0 -6 -10 -60v-5q0 -37 5 -65q0 -74 -33 -131q0 -56 -114 -271q-60 -18 -76 -66l-27 -10q-9 5 -22 5q-18 0 -54 -38q-27 -5 -27 -11l-33 6l-49 -6q-38 16 -54 16l-44 -16l-119 49q0 8 -11 22l6 11h-6q0 -6 -5 -6q0 13 -66 54q-130 125 -130 250q-15 26 -43 120q10 31 10 71
q0 19 -5 49q0 32 38 255q0 95 60 136q17 14 49 103q103 43 103 109q18 16 152 32q0 6 44 22zM247 905q0 6 -6 6l6 -11q-38 -104 -38 -223l5 -49q-16 -39 -16 -49q34 -92 43 -168q7 -5 33 -87q104 -168 168 -168q62 0 76 -22h11q29 0 109 22q0 -6 5 -6v6q-5 0 -5 5
q78 15 87 27q0 42 60 76q108 143 108 283q6 21 6 43q0 44 -6 104q6 29 6 43q-15 39 -27 141q-42 36 -66 120q6 0 6 5h-6q0 -5 -5 -5q-8 43 -103 87q0 27 -104 60q0 10 -21 10q-16 0 -147 -48q-46 0 -147 -125q-9 0 -21 -71z" />
    <glyph glyph-name="Odieresis" unicode="&#xd6;" horiz-adv-x="1065" 
d="M828 1623q38 0 76 -67q33 0 33 -39q0 -107 -49 -107q-22 -22 -60 -22q-92 8 -92 44q0 32 -11 68q0 52 92 123h11zM312 1618q87 -15 87 -85q0 -68 5 -83q0 -24 -92 -51h-6q-97 0 -97 113q0 88 81 106h22zM546 1309q12 0 65 -34q130 0 130 -33h6q0 5 5 5q5 -14 71 -44
q28 -24 81 -129q35 -40 71 -202q22 -40 22 -84v-11q0 -21 -6 -50q6 -12 6 -17h-11v-6q21 0 21 -39q0 -7 -10 -62v-5q0 -39 5 -67q0 -77 -33 -136q0 -57 -114 -279q-60 -19 -76 -68l-27 -11q-9 6 -22 6q-18 0 -54 -40q-27 -5 -27 -11l-33 6l-49 -6q-38 17 -54 17l-44 -17
l-119 51q0 8 -11 22l6 12h-6q0 -7 -5 -7q0 14 -66 56q-130 129 -130 258q-15 27 -43 124q10 32 10 73q0 20 -5 51q0 33 38 263q0 98 60 140q17 14 49 106q103 45 103 113q18 16 152 33q0 6 44 22zM247 928q0 6 -6 6l6 -11q-38 -108 -38 -231l5 -50q-16 -40 -16 -51
q34 -95 43 -173q7 -5 33 -90q104 -173 168 -173q62 0 76 -23h11q29 0 109 23q0 -6 5 -6v6q-5 0 -5 5q78 16 87 28q0 43 60 78q108 148 108 292q6 22 6 45q0 45 -6 107q6 30 6 44q-15 41 -27 146q-42 37 -66 124q6 0 6 5h-6q0 -5 -5 -5q-8 44 -103 89q0 28 -104 62
q0 11 -21 11q-16 0 -147 -50q-46 0 -147 -129q-9 0 -21 -73z" />
    <glyph glyph-name="multiply" unicode="&#xd7;" horiz-adv-x="890" 
d="M788 1003q17 -52 -23 -92l-77 -77q-26 -29 -27 -50l-22 -15q-61 -60 -47 -101q3 -26 23 -46q9 -8 19 -10q5 -5 0 -9l31 -22l31 -31q132 -145 115 -162q-9 -9 -12 -34q-68 -40 -81 -27l-96 96q-27 27 -80 88q-6 -6 -31 0l-50 58q-24 14 -46 -8l-38 -38q-9 -9 -39 -62
q-13 -13 -42 -19q12 -11 -31 -54q-129 -78 -157 -50q-36 35 43 142l7 8q3 2 53 46q5 20 16 31l4 4q17 17 38 23q92 100 51 142l-5 4q-52 53 -99 69l-12 19q-17 17 -50 20l-8 8q-72 111 -50 133l23 31q51 20 73 12l5 -12l3 4q-4 4 0 8q23 -7 50 -34q24 -24 53 -77
q51 -27 101 -70q8 9 61 -30q61 39 104 73q33 71 46 84l46 46l8 -8l3 12q76 16 116 -23z" />
    <glyph glyph-name="Oslash" unicode="&#xd8;" horiz-adv-x="1112" 
d="M913 1573q126 0 152 -76v-6q0 -11 -43 -38q-3 -32 -71 -65q-9 -17 -32 -98q-17 0 -17 -27v-5q2 -38 11 -38q-14 -43 -32 -55q0 6 -6 6l6 -11l-6 -33q33 -86 60 -125q43 -62 43 -179q6 0 6 -5q0 -16 -16 -180v-16q16 -48 16 -54q-6 -11 -6 -17l-10 6l5 -11q0 -6 -16 -49
q0 -3 5 -71q-14 -13 -71 -174q-76 -52 -76 -65q0 -27 -54 -65q-26 -65 -130 -65q0 -4 -33 -22q-26 0 -54 6q-106 -6 -142 -11q-9 5 -21 5q-15 0 -38 -65q-9 0 -27 -82q-76 -87 -104 -87h-59q-28 0 -39 28v11q22 161 55 195q49 82 49 120v27q-24 77 -60 130q0 70 -49 109v5
q5 0 5 6q-10 0 -10 5q10 62 10 87v6q-10 79 -10 87v81q0 101 54 272q0 38 43 81q11 45 60 87q36 87 71 87q0 -5 5 -5v5q-5 0 -5 6q74 54 233 54l153 -33q15 3 43 27q0 -5 5 -5v5h-5q20 33 54 174v55q8 0 55 49q33 16 43 16zM212 725l6 -65q-11 -25 -17 -147q38 -65 38 -136
q37 -16 60 -16q37 0 65 93q11 0 38 103q17 4 38 65q25 0 60 119q32 0 55 87q7 0 32 33q-5 48 -5 60q50 36 81 119q11 36 11 49v27q0 40 -32 60v6l-11 -6q-29 6 -33 6l-38 -6q-33 22 -49 22q-38 0 -65 -82q-48 -11 -125 -81q-21 0 -54 -82q-15 0 -22 -103q-33 -70 -33 -125z
M783 997v-6q5 0 5 -5q-13 0 -32 -76q-38 -24 -87 -169q-6 0 -6 -5q11 -21 11 -60q0 -7 -49 -27q-35 -57 -60 -114q6 -29 6 -49q-77 -72 -87 -147q-25 -64 -60 -119h-5q0 -74 98 -87q54 0 97 38q62 0 147 98l11 -6v6q-6 0 -6 5q25 7 104 239h5q0 6 -5 6q0 13 21 114
q0 35 -10 81q5 39 5 66l-33 59q11 69 11 82q-34 76 -81 76z" />
    <glyph glyph-name="Ugrave" unicode="&#xd9;" horiz-adv-x="1169" 
d="M563 1224q0 -75 -60 -75q-33 -55 -48 -55q-82 0 -82 -80q0 -23 5 -44q-5 -78 -16 -130q0 -15 16 -43q-5 -70 -5 -114v-48q0 -49 11 -92q-8 0 -16 -43q0 -22 16 -76q-6 -73 -6 -108q0 -69 66 -108q19 -32 43 -32h6q31 -8 38 -8q65 -18 65 -38v-5q63 23 76 23q6 0 16 -5
q0 6 65 33q49 92 55 92q43 39 43 91v76l11 108q0 14 -11 49q0 27 11 64q-11 134 -11 206q0 11 6 59q-6 11 -6 17l6 38q0 16 -11 38l5 31v6l-5 27q-63 19 -98 60q-23 0 -60 -6q-32 20 -32 27v17q27 41 54 53l11 -5v11q132 5 266 21q0 -11 65 -11h6l27 6q70 -36 70 -86
q-9 -31 -59 -49l-27 5q-48 -3 -77 -32q-5 -86 -16 -124q0 -19 22 -87q-16 -47 -16 -53v-6q0 -76 -6 -98l11 -324q-5 -20 -5 -49q0 -5 5 -16q0 -97 -27 -151q0 -58 -38 -82q-77 -24 -87 -37q0 -44 -114 -70h-33q-20 0 -76 22q-29 0 -54 -11l-33 5q-30 0 -76 -5q-27 7 -27 16
q-74 22 -82 38q-97 40 -97 86v27q0 14 7 60q-11 27 -11 43q0 31 5 113q0 22 -12 92q-18 34 -18 70v6q0 12 12 81q-5 46 -5 75v17l5 11l-16 43q0 31 11 59l-6 49q-12 11 -21 38q5 82 25 113l-5 33q5 0 5 5l-11 -5q-11 27 -11 50h-17q-12 0 -95 28q-21 20 -22 28q0 28 71 61
q93 5 109 16q70 -5 114 -5h16q28 0 65 11q97 -25 125 -38zM495 1665q44 -10 44 -22v-13l-4 -9l49 -26q0 -53 40 -76q0 -45 31 -66q9 -11 36 -89q-19 -31 -27 -31h-27q-33 49 -48 49q-76 75 -103 84q-81 69 -81 102q11 120 37 120h30q23 -17 23 -23z" />
    <glyph glyph-name="Uacute" unicode="&#xda;" horiz-adv-x="1183" 
d="M780 1285q37 -12 65 -12h16q44 0 114 5q16 -11 109 -16q71 -65 71 -93q-1 -8 -22 -28q-83 2 -95 2h-17q0 -23 -11 -51l-11 5q0 -5 5 -5l-5 -33q20 -33 25 -116q-9 -27 -21 -38l-6 -50q11 -29 11 -60l-16 -44l5 -11v-17q0 -30 -5 -77q42 -70 42 -82v-6q0 -37 -38 -71
q-42 -72 -42 -94q5 -83 5 -116q0 -16 -11 -43q-3 -37 -3 -51v-27q0 -47 -67 -98q-8 -16 -82 -39q0 -9 -27 -16q-46 5 -76 5l-33 -5q-25 11 -54 11q-56 -22 -76 -22h-33q-114 26 -114 71q-10 13 -87 38q-38 25 -38 83q-27 55 -27 154q5 11 5 16q0 30 -5 50l11 330
q-6 22 -6 99v6q0 6 -16 55q22 69 22 88q-11 38 -16 126q-29 30 -77 33l-27 -5q-50 18 -59 49q0 51 70 88l27 -6h6q65 0 65 11q134 -16 266 -21v-11l11 5q27 -13 54 -55v-17q0 -7 -32 -27q-37 -24 -60 -24q-35 -42 -98 -31l-5 -27v-6l5 -33q-11 -22 -11 -38l6 -38
q0 -7 -6 -18q6 -48 6 -59q0 -74 -11 -210q11 -38 11 -66q-11 -35 -11 -49l11 -111v-77q0 -52 43 -93q6 0 55 -93q65 -27 65 -33q10 5 16 5q13 0 76 -23v5q0 20 65 38q7 0 38 8h6q24 0 43 33q66 39 66 110q0 35 -6 109q16 56 16 78q-8 44 -16 44q11 43 11 93v49q0 45 -5 116
q16 28 16 44q-11 53 -16 132q5 21 25 75q0 82 -82 82q-15 0 -68 25q-60 0 -60 77q28 13 125 39zM720 1708h31q24 0 35 -119q0 -32 -78 -101q-27 -9 -101 -83q-14 0 -47 -49h-26q-8 0 -26 31q26 77 35 88q30 21 30 66q39 22 39 75l47 26l-3 9v13q0 12 43 21q0 6 21 23z" />
    <glyph glyph-name="Ucircumflex" unicode="&#xdb;" horiz-adv-x="1183" 
d="M780 1286q37 -11 65 -11h16q44 0 114 5q16 -11 109 -16q71 -35 71 -63q-1 -8 -22 -28q-83 -29 -95 -29h-17q0 -23 -11 -51l-11 6q0 -6 5 -6l-5 -33q20 -32 25 -115q-9 -28 -21 -39l-6 -50q11 -29 11 -60l-16 -44l5 -11v-17q0 -30 -5 -77q-28 -231 -28 -254q5 -83 5 -115
q0 -16 -11 -44q-13 -46 -13 -61v-27q0 -46 -67 -88q-8 -16 -82 -49q0 -9 -27 -16q-46 5 -76 5l-33 -5q-25 11 -54 11q-56 -22 -76 -22h-33q-114 36 -114 81q-10 13 -87 39q-38 24 -38 83q-27 54 -27 154q5 11 5 16q0 29 -5 50l1 330q-6 22 -6 99v6q0 6 -6 55q22 69 22 88
q-11 39 -16 127q-29 29 -77 32l-27 -5q-50 18 -59 50q0 50 70 88l27 -6h6q65 0 65 11q134 -16 266 -21v-12l11 6q27 -14 54 -75v-18q0 -7 -32 -27q-37 6 -60 6q-87 19 -88 -40l-5 -28v-6l5 -32q-11 -23 -11 -39l6 -38q0 -6 -6 -18q6 -48 6 -59q-10 -74 -21 -210
q11 -39 11 -66q-11 -35 -11 -50l11 -110v-77q0 -53 43 -93q6 0 55 -93q65 -28 65 -34q10 5 16 5q13 0 76 -23v5q0 20 65 38q7 0 38 9h6q24 0 43 32q66 40 66 110q0 36 -6 110l11 215v49q0 45 -5 116q16 28 16 44q-11 53 -16 132q5 21 5 45q0 82 -52 122q-15 0 -78 15
q-60 0 -60 88q28 13 125 28zM610 1705q80 -25 80 -107q44 -74 44 -123q31 -24 48 -96q-12 -27 -17 -27q0 -31 -62 -31q0 11 -22 12v27l-14 22l5 9q-5 25 -5 36q0 51 -48 84v44q0 7 -22 12q0 -4 -9 -4q-13 -8 -30 -79q-2 -32 -31 -79q0 -4 4 -14q-19 -35 -19 -48
q0 -8 -65 -17h-9l-9 4q0 -4 -4 -4q-31 23 -31 53l9 12q53 62 53 93v27q0 4 3 4q0 36 58 67q24 84 36 84q0 39 31 39h26z" />
    <glyph glyph-name="Udieresis" unicode="&#xdc;" horiz-adv-x="1183" 
d="M316 1603q98 -41 98 -82q-17 -104 -38 -104q-7 -18 -44 -33q-39 0 -92 93q0 6 -5 17q31 109 81 109zM865 1603q46 -15 76 -93q0 -52 -71 -110q-72 32 -76 55l6 12q-22 0 -22 48v6q52 82 87 82zM289 1422v-5l16 -11v5zM780 1283q37 -11 65 -11h16q44 0 114 5
q16 -12 109 -17q71 -64 71 -93q-1 -8 -22 -28q-53 22 -65 22h-17q0 -23 -21 -70l-11 5q0 -5 5 -5l-5 -34q0 -32 5 -115q-9 -27 -21 -38l-28 5h-21v-5q0 -25 43 -50q11 -29 11 -61h-27q-6 0 -6 7q-27 0 -27 -50q11 -2 11 -11q22 11 33 11l5 -11v-17q0 -30 -5 -77
q32 -70 32 -82v-6q0 -36 -38 -71q-32 -72 -32 -94q5 -83 5 -115q0 -16 -11 -43q27 -47 27 -61v-27q0 -47 -97 -88q-8 -16 -82 -39q0 -9 -27 -16q-46 5 -76 5l-33 -5q-25 11 -54 11q-56 -22 -76 -22h-33q-114 26 -114 71q-10 13 -87 38q-38 24 -38 83q-27 55 -27 154
q5 11 5 16q0 29 -5 49l11 330q-6 22 -6 99v6q0 6 -16 55q22 68 22 87q-11 39 -16 127q-29 29 -77 32l-27 -5q-50 18 -59 50q0 50 70 88l27 -7h6q65 0 65 12q134 -17 266 -22v-11l11 5q27 -13 54 -54v-17q0 -8 -32 -28q-37 6 -60 6q-35 -41 -98 -60l-5 -28v-6l5 -32
q-11 -22 -11 -38l6 -39q0 -6 -6 -17q6 -49 6 -60q0 -73 -11 -209q11 -38 11 -66q-11 -35 -11 -49l16 -61l-5 -49q5 -10 5 -16h38l-5 -12l11 7h5v-18q-5 -16 -32 -16h-17l-5 -22q0 -53 43 -93q6 0 55 -93q65 -27 65 -33q10 5 16 5q13 0 82 -44h11q10 5 16 5v34q-22 0 -33 22
v5q0 20 65 38q7 0 38 -32h6q24 0 43 32q66 40 66 110q0 36 -6 110q16 55 16 77q-8 44 -16 44q11 43 11 93v49q0 45 -5 116q16 28 16 44q-11 53 -16 131q5 22 5 45q0 82 -82 82q-15 0 -48 55q-60 0 -60 77q28 13 125 39zM1013 338q15 -2 22 -28q-7 -27 -16 -27h-6
q-16 5 -16 32q8 23 16 23z" />
    <glyph glyph-name="Ydieresis" unicode="&#x178;" horiz-adv-x="1049" 
d="M283 1291q38 -18 38 -22l54 6h38q53 0 71 -55q0 -25 -82 -92q-11 -18 -11 -33q33 -97 60 -97q0 -75 33 -93q14 0 32 -65q14 -11 22 -11l-5 -11q43 0 76 65q34 0 59 87q25 11 55 131q-25 49 -103 98q-6 9 -6 21v6q0 15 103 60q8 0 60 -11q45 11 136 16q18 -11 33 -11h32
q6 0 6 6q87 0 87 -77q0 -35 -60 -59q0 -8 -17 -17q-4 0 -32 6q-57 0 -109 -93q-7 0 -32 -70q-28 -19 -28 -49l6 -11q-8 -26 -38 -49q-17 -68 -71 -114q0 -86 -76 -190v-6q11 -62 11 -152v-16q0 -5 5 -5q-5 -9 -16 -93q0 -27 27 -43h27q17 -55 71 -55q49 10 49 17l27 -6h44
q59 -45 59 -98q0 -13 -48 -48q0 -36 -49 -44h-22l-65 11q-44 0 -104 -5q-82 0 -97 32q-10 6 -22 6q-5 0 -33 -22h-54q-25 22 -49 22q-22 -49 -54 -49h-11q-23 21 -87 32l-11 22q23 114 76 114h6q23 0 119 -11q65 24 65 55q8 48 17 48q-6 74 -6 109v65q0 44 6 104
q-11 17 -11 27q5 0 5 5h-5q0 -5 -6 -5q-9 11 -16 92q-71 71 -71 103q-35 70 -43 136q-65 82 -76 82v38q0 38 -65 103l-11 -5q-56 21 -87 21l-22 -5q-54 14 -54 54q0 82 43 82q39 -22 49 -22q16 0 158 38zM266 1586q98 -41 98 -81q-17 -103 -38 -103q-7 -18 -44 -33
q-39 0 -92 92q0 6 -5 17q31 108 81 108zM815 1586q46 -15 76 -92q0 -51 -71 -109q-72 32 -76 55l6 11q-22 0 -22 48v6q52 81 87 81zM239 1407v-5l16 -11v5z" />
    <glyph glyph-name="Yacute" unicode="&#xdd;" horiz-adv-x="1049" 
d="M687 1688h31q25 0 37 -121q0 -33 -81 -103q-27 -9 -104 -84q-15 0 -48 -50h-27q-8 0 -27 31q27 79 36 90q31 21 31 67q40 22 40 76l49 26l-4 10v13q0 12 44 22q0 6 23 23zM293 1281q38 -18 38 -22l54 6h38q53 0 71 -55q0 -25 -82 -92q-11 -18 -11 -33q33 -97 60 -97
q0 -75 33 -93q14 0 32 -65q14 -11 22 -11l-5 -11q43 0 76 65q34 0 59 87q25 11 55 131q-25 49 -103 98q-6 9 -6 21v6q0 15 103 60q8 0 60 -11q45 11 136 16q18 -11 33 -11h32q6 0 6 6q87 0 87 -77q0 -35 -60 -59q0 -8 -17 -17q-4 0 -32 6q-57 0 -109 -93q-7 0 -32 -70
q-28 -19 -28 -49l6 -11q-8 -26 -38 -49q-17 -68 -71 -114q0 -86 -76 -190v-6q11 -62 11 -152v-16q0 -5 5 -5q-5 -9 -16 -93q0 -27 27 -43h27q17 -55 71 -55q49 10 49 17l27 -6h44q59 -45 59 -98q0 -13 -48 -48q0 -36 -49 -44h-22l-65 11q-44 0 -104 -5q-82 0 -97 32
q-10 6 -22 6q-5 0 -33 -22h-54q-25 22 -49 22q-22 -49 -54 -49h-11q-23 21 -87 32l-11 22q23 114 76 114h6q23 0 119 -11q65 24 65 55q8 48 17 48q-6 74 -6 109v65q0 44 6 104q-11 17 -11 27q5 0 5 5h-5q0 -5 -6 -5q-9 11 -16 92q-71 71 -71 103q-35 70 -43 136
q-65 82 -76 82v38q0 38 -65 103l-11 -5q-56 21 -87 21l-22 -5q-54 14 -54 54q0 82 43 82q39 -22 49 -22q16 0 158 38z" />
    <glyph glyph-name="agrave" unicode="&#xe0;" horiz-adv-x="1077" 
d="M336 1258q119 0 119 -35q32 -18 55 -81l95 -124v-30q-21 -25 -43 -25q-77 51 -86 72q-47 0 -68 48q-56 0 -56 51q-46 0 -77 51q9 73 56 73h5zM497 897q23 -11 33 -11q39 6 49 11q159 -31 212 -98q65 -68 65 -152q-5 -28 -5 -32l16 -60q0 -12 -6 -22q6 -46 11 -179
q-5 -43 -5 -87h5q-21 -53 -21 -65v-6q0 -26 70 -98h6q24 0 92 77q10 5 22 5q43 -14 43 -49q-31 -103 -119 -103q-35 -27 -71 -27q-38 0 -136 87h-5q-45 0 -93 -49q-28 0 -103 -33q-59 -15 -174 -22q0 -7 -32 -10q-15 0 -87 38q-50 0 -87 48q-19 4 -71 77q6 0 6 5
q-11 0 -11 11v16q0 185 81 234q78 40 196 70l27 -5h27q9 0 22 22l54 -6h6q32 0 136 55q29 -6 43 -6q98 47 98 54q-12 72 -60 115q-16 38 -87 65l-27 5l-65 -5q-23 49 -71 49h-27q-20 0 -65 -33l-33 6q-7 0 -43 -49q-24 -6 -28 -28l6 -27q0 -92 -54 -92h-6q-22 22 -49 22
l6 11l-11 -6h-6q-16 0 -21 76q0 78 168 174q54 27 179 27zM660 403q-38 5 -43 5q-49 -32 -82 -32h-5q-22 0 -87 32q-11 -26 -76 -54q-20 11 -43 11q-29 -30 -93 -60q-22 -24 -22 -38q0 -112 66 -130q63 -55 125 -55q9 0 48 16q22 -10 60 -10q67 0 120 59q22 0 76 60
q65 12 65 103q6 21 6 49q-11 41 -44 55l-33 5q-27 -16 -38 -16z" />
    <glyph glyph-name="aacute" unicode="&#xe1;" horiz-adv-x="1078" 
d="M632 1349q85 0 85 -66v-18q0 -16 -40 -49q-77 -75 -120 -106q-8 0 -67 -54q-13 0 -35 -17h-9q-66 8 -66 48q0 36 44 71q0 -4 4 -4l-4 9q39 42 111 151q58 33 97 35zM410 932q50 -16 65 -16q40 16 49 16q41 -32 125 -43q48 -18 92 -71q71 0 82 -92q16 -21 16 -49v-16
q0 -95 -11 -147q17 -36 17 -49q0 -34 -6 -141q13 -38 16 -38q-10 -34 -10 -44l27 -92q20 -16 38 -16h16q48 0 65 59q0 24 76 28q11 -17 17 -38q0 -41 -65 -76q-35 -32 -44 -71l-22 -11q-130 0 -130 33q0 38 -98 65q-15 0 -65 -44q-98 -27 -103 -27q0 6 -6 6v-6q6 0 6 -5
q0 -26 -152 -38q-18 11 -33 11q-8 0 -49 -11q-72 35 -136 49q-108 111 -108 168v11q0 71 76 174q8 0 43 38l11 -6v6q-6 0 -6 5q41 0 60 6q0 -6 6 -6v6q-6 0 -6 5q31 27 55 27h38q22 0 43 -5q42 0 217 65h11l38 -5l82 49l5 21q0 57 -32 104q0 13 11 48q-56 9 -82 28l-27 -6
h-11q-30 33 -49 33q-43 -17 -54 -17q-48 33 -65 33q-119 -37 -125 -49q-15 -25 -44 -163q-36 -16 -49 -16q-103 15 -103 49v65q0 22 38 60q0 44 114 98q41 23 109 27q0 5 27 21zM606 438l-28 5q-38 -38 -114 -38q-17 0 -43 -43h-11q-62 16 -71 16q-130 -18 -130 -43l-16 -65
q0 -80 32 -104q-5 0 -5 -5l11 5q23 -15 135 -54l39 5q34 -14 76 -21q0 17 135 65q36 39 93 76q36 28 54 119v11q-12 87 -38 87h-5q-37 -11 -114 -16z" />
    <glyph glyph-name="acircumflex" unicode="&#xe2;" horiz-adv-x="1099" 
d="M517 1357q30 0 30 -37q12 0 34 -77q57 -28 57 -61q4 0 4 -5v-24q0 -30 51 -86l9 -12q0 -28 -30 -49q-4 0 -4 4l-9 -4h-9q-64 9 -64 16q0 13 -17 45q4 8 4 12q-29 44 -30 74q-18 65 -30 73q-9 0 -9 4q-22 -5 -22 -12v-41q-47 -30 -47 -77q0 -10 -4 -33l4 -9l-13 -20v-24
q-21 -1 -21 -12q-61 0 -61 29q-5 0 -17 24q17 67 48 89q0 45 42 114q0 75 78 99h26zM500 907h5q65 0 98 -23v6q170 -69 201 -146q16 -31 27 -72l-5 -29q0 -10 32 -83q-22 -47 -22 -62v-11q0 -11 11 -56l-5 -50q0 -3 5 -23q0 -5 -5 -16l16 -113q-5 0 -5 -5h5q-16 -29 -16 -55
q41 -68 76 -68q39 0 81 78l17 11h32q27 -14 27 -44q0 -70 -54 -118l-27 6h-16q-28 -14 -28 -28q-80 13 -124 28q-36 39 -60 39h-93q-119 -45 -119 -79l-11 -5h-11l-11 5q0 -5 -5 -5q0 13 -27 17l-66 -28h-59l-44 33h-16q-16 0 -44 -17q-40 21 -92 34q-38 57 -38 62q5 0 5 5
q-16 2 -59 84q0 6 -6 17q0 61 55 157q8 0 92 89l38 12q18 -12 27 -12q114 23 190 45q0 -5 6 -5q0 9 32 22q20 -11 44 -11h11q128 33 146 33l44 89v7l-33 83q-15 17 -49 85q-30 27 -32 27h-33q0 -38 -27 -45q-20 0 -38 57l-38 5h-5q0 -47 -49 -56q-22 0 -22 -6q-37 29 -54 29
h-11q-32 0 -49 -39h5q-38 -46 -38 -147l6 -11l-22 -16l-16 11h-33q-37 -6 -38 -16q-39 15 -54 44q0 56 43 145q11 0 71 68q24 16 130 39q0 5 16 11q0 -6 6 -6q0 23 109 23zM641 436q-10 -12 -17 -50q-13 -17 -32 -17q-6 17 -33 17h-32q-10 0 -17 -28l17 -56h-11
q-66 28 -71 28h-11q-48 -16 -54 -16h-38q-9 0 -38 -56l-38 5h-11q-13 -3 -27 -39q0 -84 65 -84q13 0 82 -28q68 -5 81 -5q147 48 168 67q0 19 66 34q27 22 43 100v28q0 10 -38 17q0 -6 -5 -6q-23 39 -27 39l5 29v16z" />
    <glyph glyph-name="atilde" unicode="&#xe3;" horiz-adv-x="1077" 
d="M350 1277q30 -8 94 -13q104 -72 104 -96q38 -16 63 -37h4q55 0 81 40q32 15 32 77q22 21 27 21h9q36 0 36 -33v-20q0 -40 -36 -113q-45 -16 -45 -45q-10 0 -19 -4l-26 4q-4 0 -37 -8h-17q-11 0 -64 29h-22l-9 44h-32q-58 33 -58 36l-9 -3h-9q-18 28 -72 44
q-60 -28 -86 -85q0 -49 -36 -49t-36 69v29q0 18 27 32q33 81 136 81zM411 922q50 -16 65 -16q40 16 49 16q41 -32 125 -43q48 -18 92 -71q71 0 82 -92q16 -21 16 -49v-16q0 -95 -11 -147q17 -36 17 -49q0 -34 -6 -141q13 -38 16 -38q-10 -34 -10 -44l27 -92q20 -16 38 -16
h16q48 0 65 59q0 24 76 28q11 -17 17 -38q0 -41 -65 -76q-35 -32 -44 -71l-22 -11q-130 0 -130 33q0 38 -98 65q-15 0 -65 -44q-98 -27 -103 -27q0 6 -6 6v-6q6 0 6 -5q0 -26 -152 -38q-18 11 -33 11q-8 0 -49 -11q-72 35 -136 49q-108 111 -108 168v11q0 71 76 174
q8 0 43 38l11 -6v6q-6 0 -6 5q41 0 60 6q0 -6 6 -6v6q-6 0 -6 5q31 27 55 27h38q22 0 43 -5q42 0 217 65h11l38 -5l82 49l5 21q0 57 -32 104q0 13 11 48q-56 9 -82 28l-27 -6h-11q-30 33 -49 33q-43 -17 -54 -17q-48 33 -65 33q-119 -37 -125 -49q-15 -25 -44 -163
q-36 -16 -49 -16q-103 15 -103 49v65q0 22 38 60q0 44 114 98q41 23 109 27q0 5 27 21zM607 428l-28 5q-38 -38 -114 -38q-17 0 -43 -43h-11q-62 16 -71 16q-130 -18 -130 -43l-16 -65q0 -80 32 -104q-5 0 -5 -5l11 5q23 -15 135 -54l39 5q34 -14 76 -21q0 17 135 65
q36 39 93 76q36 28 54 119v11q-12 87 -38 87h-5q-37 -11 -114 -16z" />
    <glyph glyph-name="adieresis" unicode="&#xe4;" horiz-adv-x="1088" 
d="M279 1286q32 0 32 -74v-68q0 -58 -54 -58h-65q-60 0 -60 91l-6 29q0 80 153 80zM778 1286q47 -17 82 -63v-6q-20 -119 -54 -119q0 -18 -28 -34h-10q-109 21 -109 85q-16 34 -16 40q42 91 87 91q28 0 48 6zM507 955q73 -5 108 -5q0 -9 98 -40l-5 -11l11 6q97 -73 97 -114
q38 -125 38 -171q6 -50 6 -56q-27 -51 -27 -69v-22q0 -6 11 -46q-6 0 -6 -5h6q0 5 5 5q-16 -89 -27 -103v-5q16 0 22 -114q16 -22 32 -34q17 6 60 40q67 34 81 34q39 0 49 -80v-5q-20 -103 -32 -103h-6l-32 6l-44 -34q-88 0 -119 -46q-114 74 -131 74h-38q-27 13 -27 17
q-37 -5 -87 -45q-10 0 -70 -28q-84 0 -163 33h-11q-34 -11 -55 -11q-108 56 -108 74q5 0 5 5q-9 0 -32 35q-44 46 -44 63q0 20 6 119h-6q0 74 120 154l10 -6v6q-5 0 -5 5q0 28 185 45q0 12 27 12q9 0 65 -6q197 52 217 85q33 21 33 40q0 125 -54 125q-27 80 -93 80h-27
l-65 -12l-38 12l-27 -5l-27 5q-93 -29 -93 -85q13 0 17 -40q-10 -80 -55 -80q-11 0 -32 -22h-11q-87 69 -87 108q44 105 60 107q106 103 266 103q0 5 49 5zM507 438l-27 5q-23 0 -55 -10q-9 5 -21 5h-6q-19 0 -65 -40h-38q-98 -20 -98 -62q-22 -41 -22 -63q58 -148 163 -148
q49 12 71 12q9 0 43 -12q12 0 98 35q59 8 87 56h6l10 -5v5q-5 0 -5 7q22 0 22 10q-6 0 -6 6q4 0 60 68v103q-3 17 -81 40q-17 28 -38 28q-62 -17 -98 -40z" />
    <glyph glyph-name="aring" unicode="&#xe5;" horiz-adv-x="1080" 
d="M494 1411q137 0 201 -139v-83q-20 -94 -66 -94q-10 -14 -10 -23l5 -27q-60 0 -87 -34q-32 -21 -49 -21q-33 0 -87 32q-81 30 -81 89q-22 46 -22 66q0 85 33 150q0 53 135 78zM374 1222v-6q25 -116 87 -116q48 -5 54 -5q71 28 71 105v27q-33 60 -33 67q6 0 6 6h-6
q0 -6 -5 -6q0 8 -16 17h-27q-22 -22 -82 -34zM423 922h5q26 0 87 -10q39 5 44 5q182 -36 190 -61q82 -75 82 -100q32 -62 32 -122v-50q0 -40 -22 -116q10 -55 17 -55l-6 -56v-23q0 -166 22 -166h5q13 0 109 56q22 5 38 5q37 0 60 -77q-23 -31 -49 -83q-45 -48 -92 -50
q-4 0 -33 5q-58 -16 -87 -16q-108 55 -136 55h-11q-39 0 -81 -33q-87 -47 -152 -67q-20 0 -55 45q-48 0 -152 22q-62 18 -119 99q-17 29 -17 39q6 0 6 6q-9 0 -27 44q-11 0 -11 11v12q0 18 43 122q0 61 71 83q27 11 98 16q0 20 65 34q0 5 5 5q38 -5 60 -5h6q10 11 76 16
q0 13 87 22q157 45 157 112q-21 105 -43 105q-18 31 -38 44q-20 0 -49 -5q-8 0 -49 38h-11q-171 -27 -196 -27q-27 -38 -27 -105q-31 -51 -60 -73h-59q-6 0 -6 -5q-70 27 -70 78q0 61 119 166q153 60 174 60zM564 423q0 6 -5 6v-6q5 0 5 -5l-38 -27l-11 5h-32
q-38 -33 -44 -33l-32 28q-10 5 -22 5q-27 -17 -43 -17h-60q-36 -49 -76 -66l-11 -39v-50q0 -57 60 -77q91 -31 125 -50q145 0 228 71q10 22 92 89q38 60 38 95v32q0 27 -70 50q-33 0 -104 -11z" />
    <glyph glyph-name="ae" unicode="&#xe6;" horiz-adv-x="1544" 
d="M410 949q50 -17 65 -17q40 17 49 17q51 -40 109 -40q83 -35 98 -75q76 -18 76 -45h5q3 23 16 23q0 -6 6 -6v6q-6 0 -6 6q150 103 305 103q24 -17 97 -24q118 -96 125 -96q91 -81 93 -115q32 -61 32 -97v-51q0 -13 6 -23q0 -41 -76 -86l-22 6q-84 0 -147 -40q-68 5 -76 5
q-22 -2 -22 -17l-38 6h-54l-11 6v-6q6 0 6 -6h-6q-54 28 -125 28q-50 0 -54 -51q0 -16 16 -51q-16 -29 -16 -46v-11q0 -53 49 -104v-5q5 0 5 5l169 -73q81 0 190 45q19 46 125 115l22 5q38 -17 38 -52q0 -45 -60 -73q-94 -86 -131 -86q-74 -23 -135 -29q-61 17 -191 17
l-21 23q5 0 5 6h-5q0 -6 -6 -6q0 6 -65 40q0 16 -33 52q-7 0 -97 -35q-78 -68 -152 -68l-33 -29q-35 -16 -141 -23q0 12 -17 12q-14 0 -54 -12q-61 35 -136 52q-103 121 -103 149q0 14 -5 45q8 82 70 172q44 56 114 56q20 35 65 35h33q22 0 44 -5l70 10q0 -5 6 -5v5
q-6 0 -6 7q27 17 44 17l10 -6q62 40 98 40h6l32 -6q13 0 49 35q33 0 33 68v6q0 22 -27 86l11 40q-56 9 -82 28l-27 -5h-11q-30 33 -49 33l-54 -16q-51 34 -60 34l-130 -46q-17 -43 -44 -177q-25 -17 -43 -17q-109 10 -109 57v74q35 45 54 86q67 68 163 92q39 0 71 28z
M1176 812q0 -5 -16 -18l-27 7q-74 0 -147 -35q-10 0 -27 -12q0 7 -6 7q-75 -66 -87 -132v-86q63 -45 131 -45h27q3 0 22 5v-5q10 5 54 11q3 0 22 -6q131 18 223 58v113q-24 40 -71 87v5l-16 -12q-20 35 -28 35q0 -5 -5 -5v10l-11 -5h-5l11 17h-6q0 -12 -11 -12zM606 429
l-28 6q-54 -40 -70 -40h-55q-26 -46 -43 -46q-62 17 -71 17q-130 -19 -130 -46l-16 -68q0 -93 49 -120q6 0 124 -46l39 6q35 -17 48 -17h11q162 61 190 97q0 -6 6 -6l-6 12v5q98 49 98 126q11 0 11 40v6q-11 91 -43 91h-6q-21 -11 -108 -17z" />
    <glyph glyph-name="egrave" unicode="&#xe8;" horiz-adv-x="885" 
d="M397 1252q50 -49 50 -59q14 -31 47 -76q59 -68 59 -96q-17 -30 -25 -30h-5q-23 0 -37 26q-2 4 -12 29q-59 12 -59 34q0 12 -51 25q-5 0 -17 46q-4 0 -4 -4q-42 0 -63 42q8 38 13 38q0 34 42 34l29 8q33 -6 33 -17zM496 902q80 -17 124 -33q22 -21 115 -86q87 -72 87 -109
q32 -19 38 -185q0 -37 -82 -76q-22 0 -43 6q-50 -1 -120 -29q-22 0 -43 -5q-18 11 -33 11l-38 -22q-35 11 -49 11q-12 0 -60 -5q-57 26 -103 27q-54 -14 -54 -33q16 -43 16 -54v-11q-16 -33 -16 -54q25 -97 87 -97q9 -19 97 -38q28 -17 28 -28q76 11 139 29q24 44 33 44
q0 -6 5 -6v6q-5 0 -5 5q11 0 92 60q9 5 22 5h21q38 -15 38 -59q0 -63 -87 -98q-59 -71 -135 -71q0 -5 23 15q0 5 -5 5v-5q5 0 5 -6q-81 -10 -97 -10q-77 16 -202 16q-24 28 -92 60q0 14 -81 108q-37 58 -60 196v174q11 13 11 16q-6 0 -6 6q9 0 22 92l62 129q28 29 65 44
q0 -6 5 -6q0 28 174 66q68 5 102 -5zM505 761h-12q-34 21 -37 21q-76 -11 -179 -55q0 6 -7 6q-43 -67 -61 -130v-50l69 -38q12 6 19 6q18 -11 34 -11q214 -18 302 8q64 11 64 33q0 5 -6 5l6 47v33q0 24 -76 92q0 60 -47 60z" />
    <glyph glyph-name="eacute" unicode="&#xe9;" horiz-adv-x="885" 
d="M542 1268l30 -8q46 0 46 -37q6 0 14 -42q-24 -45 -69 -45q0 4 -4 4q-13 -50 -18 -50q-55 -15 -55 -28q0 -24 -64 -36q-11 -28 -13 -32q-16 -28 -41 -28h-5q-8 0 -27 32q0 31 64 105q35 49 50 83q0 11 56 63q0 13 36 19zM496 902q80 -17 124 -33q22 -21 115 -86
q87 -72 87 -109q32 -19 38 -185q0 -37 -82 -76q-22 0 -43 6q-50 -1 -120 -29q-22 0 -43 -5q-18 11 -33 11l-38 -22q-35 11 -49 11q-12 0 -60 -5q-57 26 -103 27q-54 -14 -54 -33q16 -43 16 -54v-11q-16 -33 -16 -54q25 -97 87 -97q9 -19 97 -38q28 -17 28 -28q76 11 139 29
q24 44 33 44q0 -6 5 -6v6q-5 0 -5 5q11 0 92 60q9 5 22 5h21q38 -15 38 -59q0 -63 -87 -98q-59 -71 -135 -71q0 -5 23 15q0 5 -5 5v-5q5 0 5 -6q-81 -10 -97 -10q-77 16 -202 16q-24 28 -92 60q0 14 -81 108q-37 58 -60 196v174q11 13 11 16q-6 0 -6 6q9 0 22 92l62 129
q28 29 65 44q0 -6 5 -6q0 28 174 66q68 5 102 -5zM505 761h-12q-34 21 -37 21q-76 -11 -179 -55q0 6 -7 6q-43 -67 -61 -130v-50l69 -38q12 6 19 6q18 -11 34 -11q214 -18 302 8q64 11 64 33q0 5 -6 5l6 47v33q0 24 -76 92q0 60 -47 60z" />
    <glyph glyph-name="ecircumflex" unicode="&#xea;" horiz-adv-x="886" 
d="M473 1382q31 0 31 -38q12 0 35 -82q59 -30 59 -65q4 0 4 -4v-26q0 -30 53 -90l9 -12q0 -29 -31 -51q-4 0 -4 3l-9 -3h-9q-67 9 -67 16q0 13 -18 47q4 9 4 13q-29 46 -31 77q-18 69 -31 77q-9 0 -9 4q-22 -5 -22 -12v-43q-49 -32 -49 -81q0 -11 -4 -35l4 -9l-13 -21v-26
q-23 -1 -23 -12q-62 0 -62 30q-6 0 -18 26q18 70 49 94q0 47 45 120q0 79 80 103h27zM502 902q80 -19 124 -35q22 -23 115 -91q87 -76 87 -114q32 -19 38 -189q0 -38 -82 -77q-22 1 -43 7q-50 0 -120 -37q-22 0 -43 -4q-18 12 -33 12l-38 -22q-35 12 -49 12q-12 0 -60 -4
q-57 28 -103 30q-54 -13 -54 -33q-34 -44 -34 -55v-11q34 -24 34 -45q25 -99 87 -100q9 -21 97 -41q28 -19 28 -30q76 10 179 46q24 45 33 45q0 -6 5 -6v6q-5 0 -5 5q11 0 92 59q9 6 22 5h21q38 -17 38 -62q0 -64 -87 -98q-59 -72 -135 -70q0 -5 -17 -5q0 5 -5 5v-5
q5 0 5 -6q-81 -8 -97 -8q-77 18 -202 20q-24 30 -92 64q0 14 -81 112q-37 61 -60 202v178q11 13 11 16q-6 0 -6 6q9 0 22 93q61 76 82 121q28 29 65 43q0 -6 5 -6q0 28 174 64q68 3 82 3zM523 746h-11q-13 12 -16 13q-71 -6 -168 -43q0 6 -6 6q-79 -84 -96 -147v-61l85 -14
q11 6 17 6q17 -14 32 -15q201 -3 283 17q60 7 60 29q0 5 -6 5l6 28v34q0 24 -71 99q0 61 -44 65z" />
    <glyph glyph-name="edieresis" unicode="&#xeb;" horiz-adv-x="962" 
d="M287 1252h11q27 -12 27 -56v-112l-11 6l6 -11v-6q0 -12 -27 -17q-39 7 -44 7q-41 -12 -43 -12q-61 0 -71 129q0 63 152 72zM793 1252q20 0 86 -67l-38 -106q-4 0 -48 -45h-6q-103 27 -103 45l-27 83q31 85 125 85q0 5 11 5zM537 911q19 -16 98 -22q44 -30 65 -62
q-5 0 -5 -5q10 5 16 5q29 -8 71 -61q108 -61 108 -275q0 -54 -92 -83l-27 5q-67 0 -120 -39q-38 0 -43 -5q-22 11 -38 11l-38 -22q-36 11 -49 11q-12 0 -60 -6q-57 26 -103 28q-55 -11 -55 -39q17 -27 17 -61q-17 -28 -17 -46q28 -106 98 -106q16 -16 98 -39q0 -8 22 -16
q53 0 141 33q34 0 65 61q10 0 65 40q0 -6 6 -6v6q-6 0 -6 6l28 16q0 -6 5 -6v11h44q32 -17 32 -60v-12q0 -53 -81 -84q-28 -37 -55 -51l-11 7v-7q6 0 6 -5q-37 -16 -136 -39h-16l-11 5v-11h-33q-78 17 -201 17q-29 32 -92 61q0 17 -82 112q-36 60 -59 202v168q23 113 43 156
q49 48 65 95q139 112 337 112zM548 766q-27 0 -27 11q-95 -16 -114 -40q-95 0 -136 -133v-62l71 -39q10 6 16 6q2 -11 11 -11h16q65 0 65 11q6 0 6 -6l27 6h27l33 -6q37 15 92 22q3 8 92 28v6q0 17 -5 17l5 28v45q-31 48 -70 78v50q-34 17 -44 17q-13 0 -60 -28h-5z" />
    <glyph glyph-name="igrave" unicode="&#xec;" horiz-adv-x="895" 
d="M325 1295q58 -57 58 -69q16 -36 54 -88q68 -79 68 -112q-20 -34 -29 -34h-5q-27 0 -44 30q-47 14 -58 44q-69 12 -69 38q0 14 -31 57q-6 0 -47 26q-4 0 -4 -5q-49 0 -74 49q9 44 15 44q0 39 49 39h78q39 -7 39 -19zM390 925q152 0 152 -87l5 -11l-5 -54q16 -49 16 -81
v-212q0 -71 6 -147q-6 -24 -6 -87q0 -103 60 -103q42 -6 92 -6h6q11 0 54 11q76 -14 76 -27l11 6q31 -27 49 -49q-13 -55 -33 -76q-215 10 -260 27q-48 -6 -60 -6q-18 11 -33 11h-65q-59 0 -152 -38q-28 16 -54 16h-33q-54 -1 -54 -10q-109 25 -109 81q0 76 163 76
q19 -5 54 -5l38 16l33 -5h5q76 0 76 152q7 0 11 32l-11 49q0 6 6 17q0 4 -6 32q6 68 6 82l-6 38q17 46 17 65v32q0 109 -65 109q-10 6 -22 6l-54 -11l-39 5q-69 -5 -76 -11q-38 16 -38 49q11 44 22 60h-5q0 26 92 33q0 7 38 16q8 0 49 -11z" />
    <glyph glyph-name="iacute" unicode="&#xed;" horiz-adv-x="909" 
d="M552 1320h76q47 0 47 -38q6 0 14 -43q-24 -47 -71 -47q0 5 -4 5q-13 -52 -19 -52q-57 -15 -57 -28q0 -26 -66 -38q-11 -28 -56 -42q-17 -29 -43 -29h-5q-9 0 -28 33q0 32 66 109q37 50 52 85q0 11 57 66q0 12 37 19zM392 925q152 0 152 -87l5 -11l-5 -54q16 -49 16 -81
v-212q0 -71 6 -147q-6 -24 -6 -87q0 -103 60 -103q42 -6 92 -6h6q11 0 54 11q76 -14 76 -27l11 6q31 -27 49 -49q-13 -55 -33 -76q-215 10 -260 27q-48 -6 -60 -6q-18 11 -33 11h-65q-59 0 -152 -38q-28 16 -54 16h-33q-54 -1 -54 -10q-109 25 -109 81q0 76 163 76
q19 -5 54 -5l38 16l33 -5h5q76 0 76 152q7 0 11 32l-11 49q0 6 6 17q0 4 -6 32q6 68 6 82l-6 38q17 46 17 65v32q0 109 -65 109q-10 6 -22 6l-54 -11l-39 5q-69 -5 -76 -11q-38 16 -38 49q11 44 22 60h-5q0 26 92 33q0 7 38 16q8 0 49 -11zM1253 821h22q0 -11 10 -11v-27
h-21q-14 0 -17 22q6 10 6 16zM783 -91q11 -5 16 -5v-6q0 -11 -10 -11h-17q-11 0 -11 11z" />
    <glyph glyph-name="icircumflex" unicode="&#xee;" horiz-adv-x="895" 
d="M417 1379q30 0 30 -39q12 0 34 -83q57 -30 57 -65q4 0 4 -5v-26q0 -32 51 -91l9 -13q0 -30 -30 -52q-4 0 -4 3l-9 -3h-9q-64 9 -64 16q0 14 -17 49q4 8 4 13q-29 46 -30 78q-18 70 -30 78q-9 0 -9 5q-22 -6 -22 -13v-44q-47 -32 -47 -82q0 -11 -4 -35l4 -9l-13 -22v-26
q-21 -1 -21 -13q-61 0 -61 31q-5 0 -17 26q17 72 48 95q0 48 42 122q0 80 78 105h26zM390 925q152 0 152 -87l5 -11l-5 -54q16 -49 16 -81v-212q0 -71 6 -147q-6 -24 -6 -87q0 -103 60 -103q42 -6 92 -6h6q11 0 54 11q76 -14 76 -27l11 6q31 -27 49 -49q-13 -55 -33 -76
q-215 10 -260 27q-48 -6 -60 -6q-18 11 -33 11h-65q-59 0 -152 -38q-28 16 -54 16h-33q-54 -1 -54 -10q-109 25 -109 81q0 76 163 76q19 -5 54 -5l38 16l33 -5h5q76 0 76 152q7 0 11 32l-11 49q0 6 6 17q0 4 -6 32q6 68 6 82l-6 38q17 46 17 65v32q0 109 -65 109
q-10 6 -22 6l-54 -11l-39 5q-69 -5 -76 -11q-38 16 -38 49q11 44 22 60h-5q0 26 92 33q0 7 38 16q8 0 49 -11z" />
    <glyph glyph-name="idieresis" unicode="&#xef;" horiz-adv-x="931" 
d="M416 925q152 0 152 -87l5 -11l-5 -54q16 -49 16 -81v-212q0 -71 6 -147q-6 -24 -6 -87q0 -103 60 -103q42 -6 92 -6h6q11 0 54 11q76 -14 76 -27l11 6q31 -27 49 -49q-13 -55 -33 -76q-215 10 -260 27q-48 -6 -60 -6q-18 11 -33 11h-65q-59 0 -152 -38q-28 16 -54 16h-33
q-54 -1 -54 -10q-109 25 -109 81q0 76 163 76q19 -5 54 -5l38 16l33 -5h5q76 0 76 152q7 0 11 32l-11 49q0 6 6 17q0 4 -6 32q6 68 6 82l-6 38q17 46 17 65v32q0 109 -65 109q-10 6 -22 6l-54 -11l-39 5q-69 -5 -76 -11q-38 16 -38 49q11 44 22 60h-5q0 26 92 33q0 7 38 16
q8 0 49 -11zM194 1280q103 -19 103 -92q0 -55 -70 -109q-10 -6 -22 -6h-49l-33 -5q-38 0 -38 103q0 36 38 60q0 -5 6 -5l-6 10q0 37 71 44zM721 1280h6q103 -35 103 -87q0 -108 -103 -136q-11 6 -17 6l-27 -6q-71 18 -71 71q-5 0 -5 16v6q21 130 114 130z" />
    <glyph glyph-name="ntilde" unicode="&#xf1;" horiz-adv-x="1144" 
d="M382 1289q37 -10 114 -16q125 -90 125 -120q46 -19 76 -46h5q66 0 98 50q38 19 38 97q27 25 33 25h10q44 0 44 -41v-25q0 -50 -44 -141q-54 -21 -54 -56q-12 0 -22 -4l-32 4q-5 0 -44 -10h-21q-13 0 -77 35h-27l-11 56h-38q-70 41 -70 45l-11 -4h-11q-21 35 -87 55
q-72 -35 -103 -106q0 -61 -44 -61q-43 0 -43 86v36q0 22 33 40q39 101 163 101zM696 926q34 -11 114 -17q71 -42 71 -108q8 0 49 -93q16 -5 16 -32q0 -10 -21 -49q10 -49 27 -49v-16q-27 -58 -27 -142q0 -68 -6 -188l11 -6h16l13 -44q24 0 38 -33q15 20 15 7q0 -16 86 -31
q38 -54 38 -58v-5q-41 -60 -124 -60q0 -6 -6 -6q-29 6 -49 6l-27 -6q-37 28 -54 28h-27q-4 0 -33 -33l-60 22l-27 -6q-37 17 -60 17h-16q-6 0 -6 -6q-17 11 -27 11v11q0 78 49 78q62 25 116 43q55 59 55 178q0 59 10 119q0 50 -43 120q11 34 11 43q-18 88 -38 134
q-20 0 -71 38q-6 0 -16 6q-107 -34 -154 -51q-107 -67 -107 -98q0 -40 -44 -60l-10 5l5 -11q-38 -51 -18 -164v-16q-9 -186 -9 -199q0 -55 172 -98l16 -7q-18 -87 -65 -87l-38 5q-43 -22 -60 -22q-62 22 -81 22q-96 -10 -114 -22q-104 0 -131 55v16q0 15 49 83
q53 -11 60 -11q44 19 65 55v43q0 6 -5 6q16 90 16 117v191q0 12 -5 21q10 32 16 71l-11 49l16 95q-14 36 -32 44h-6q-26 0 -43 -28q-10 -5 -22 -5q-102 30 -103 45v22q0 36 114 43q41 -5 54 -10q2 10 11 10h6q108 -21 108 -70q18 -65 38 -75l38 16q0 -6 6 -6v6q-6 0 -6 5
q9 0 71 65q110 66 119 66q40 0 87 11zM-71 1294h5q17 -5 17 -32v-11q0 -7 -28 -27l-11 5q6 65 17 65zM-121 408q42 -15 42 -31q-10 -30 -63 -30q-19 0 -19 21v9q0 16 40 31z" />
    <glyph glyph-name="ograve" unicode="&#xf2;" horiz-adv-x="973" 
d="M407 1287q58 -46 58 -55q16 -29 54 -71q67 -64 67 -91q-20 -28 -29 -28h-5q-26 0 -43 24q-47 12 -58 36q-28 30 -28 51q0 11 -59 24q-45 -20 -58 23q-6 0 -6 -4q-17 0 -42 39q8 36 14 36q0 32 18 32h78q39 -6 39 -16zM469 964q69 -5 82 -5v5q66 -27 125 -38
q34 -33 98 -60q19 -59 87 -119q0 -36 38 -109v-38l-6 -11q22 -1 22 -54v-16q-11 -93 -11 -104v-54l-32 -109q0 -58 -38 -87q-43 -69 -131 -108q-38 -25 -38 -38h-5q-10 0 -60 21q-39 0 -152 -48h-6q-168 62 -168 92q-61 0 -147 163q6 0 6 5q-11 0 -44 82q6 46 6 70
q-11 0 -28 77q17 43 33 211q27 15 87 136q87 66 103 66q0 -6 6 -6v6q-6 0 -6 5q3 0 120 54q6 0 59 11zM372 736h-27q0 -16 -49 -65q-42 -71 -55 -71q6 -10 6 -16q0 -27 -17 -103v-11q0 -10 17 -49q-6 0 -6 -6q12 0 17 -21q-11 -27 -11 -66q10 -44 87 -108q0 -40 114 -60
l76 -5l38 5q28 -5 65 -5q130 110 130 152q0 26 38 206q0 12 -65 131q0 61 -87 87q-45 65 -87 65q-40 11 -48 11q-15 0 -115 -66q-9 -5 -21 -5zM600 225h11q11 -2 11 -11v-11q0 -10 -11 -10h-6q-13 10 -21 10v6q0 8 16 16z" />
    <glyph glyph-name="oacute" unicode="&#xf3;" horiz-adv-x="973" 
d="M618 1306h70q-7 0 -7 -35q5 0 13 -39q-22 -43 -15 -43q0 4 -4 4q-12 -47 -18 -47q-51 -14 -51 -26q0 -24 -61 -35q-10 -26 -52 -39q-15 -26 -39 -26h-5q-7 0 -25 30q0 30 61 100q33 46 47 78q0 10 52 60q0 12 34 18zM469 964q69 -5 82 -5v5q66 -27 125 -38q34 -33 98 -60
q19 -59 87 -119q0 -36 38 -109v-38l-6 -11q22 -1 22 -54v-16q-11 -93 -11 -104v-54l-32 -109q0 -58 -38 -87q-43 -69 -131 -108q-38 -25 -38 -38h-5q-10 0 -60 21q-39 0 -152 -48h-6q-168 62 -168 92q-61 0 -147 163q6 0 6 5q-11 0 -44 82q6 46 6 70q-11 0 -28 77
q17 43 33 211q27 15 87 136q87 66 103 66q0 -6 6 -6v6q-6 0 -6 5q3 0 120 54q6 0 59 11zM372 736h-27q0 -16 -49 -65q-42 -71 -55 -71q6 -10 6 -16q0 -27 -17 -103v-11q0 -10 17 -49q-6 0 -6 -6q12 0 17 -21q-11 -27 -11 -66q10 -44 87 -108q0 -40 114 -60l76 -5l38 5
q28 -5 65 -5q130 110 130 152q0 26 38 206q0 12 -65 131q0 61 -87 87q-45 65 -87 65q-40 11 -48 11q-15 0 -115 -66q-9 -5 -21 -5zM600 225h11q11 -2 11 -11v-11q0 -10 -11 -10h-6q-13 10 -21 10v6q0 8 16 16z" />
    <glyph glyph-name="oe" unicode="&#x153;" horiz-adv-x="1625" 
d="M461 955q18 0 93 -5l49 5q68 -2 222 -132q22 -48 22 -69h5q54 112 120 132q53 29 98 40q0 -6 5 -6q0 23 141 30q39 -17 115 -30q29 -30 125 -102q0 -13 54 -47q60 -112 60 -155q0 -59 5 -92q0 -43 -87 -80l-22 6q-71 0 -135 -40h-11l-65 5q-19 -7 -33 -22q-20 11 -44 11
h-27l-32 -6q-57 29 -114 29q-48 0 -55 -46q17 -40 17 -58q-17 -29 -17 -57q0 -16 27 -68q-5 0 -5 -7q84 -45 179 -80q0 -8 55 -17v12h32q90 34 114 34q4 43 131 121q9 5 27 5q38 -16 38 -63q0 -54 -82 -86q-61 -80 -141 -80q0 -15 -114 -23q-40 12 -201 23q-18 28 -76 52
q-24 43 -82 114l-5 12q-62 -35 -92 -121q-34 -9 -60 -63q-24 -17 -38 -17l-27 12q-85 0 -114 -29l-11 5h-109q-60 9 -60 24l-11 -7q-17 0 -76 52q-60 0 -146 247q0 72 -22 104q27 62 38 212q13 75 33 92q18 0 38 68q82 105 163 132q89 29 108 29zM211 530q0 -130 33 -183
q0 -71 109 -178q14 -28 21 -29q0 6 6 6q0 -31 136 -40q26 5 70 5q0 31 76 47l65 62q33 13 33 98q8 12 16 12q0 5 -5 5q10 26 22 29l-6 69v74q0 58 -11 58l6 29v11q0 73 -33 103q6 0 6 6h-6v-6l-130 98q0 10 -16 29q-37 -17 -60 -17q-67 28 -71 28h-22q-39 -58 -103 -58
q0 -6 -49 -57l-22 -80q-20 -2 -38 -75q-27 -28 -27 -46zM1233 811q-11 0 -11 12q-95 -12 -141 -40q-63 -12 -98 -69q-27 -57 -27 -68v-75q57 -47 136 -47q65 12 103 12h49q19 0 179 46v109q0 8 -71 87q0 62 -43 62h-11z" />
    <glyph glyph-name="ocircumflex" unicode="&#xf4;" horiz-adv-x="945" 
d="M503 1303q83 -22 83 -94q46 -65 46 -108q32 -21 50 -84q-12 -23 -18 -23q0 -27 -64 -27q0 10 -23 11v23l-14 20l5 7q-5 22 -5 31q0 45 -50 74v38q0 6 -23 11q0 -3 -9 -3q-14 -8 -32 -70q-2 -28 -32 -69q0 -3 4 -12q-19 -30 -19 -42q0 -7 -68 -15h-9l-10 3q0 -3 -4 -3
q-32 20 -32 46l9 11q55 54 55 81v24q0 4 4 4q0 31 60 58q25 73 37 73q0 35 32 35h27zM459 934q10 -6 16 -6l76 6q88 -29 98 -29l-5 -10l11 5q45 -39 92 -39q16 -22 16 -34q-5 0 -5 -5q18 0 43 -73q60 -30 60 -95q27 -25 27 -67l-5 -34q0 -13 16 -67v-11q-11 -40 -11 -44v-85
q-37 -188 -130 -273q-76 -39 -103 -45l-38 6q-81 -39 -125 -39q-14 0 -49 -23h-6l-130 50q-15 39 -87 56q-39 46 -60 96q-8 0 -65 128v5q0 25 11 45q-18 79 -27 89q30 234 59 247q38 63 60 111q190 135 261 135zM475 788q0 -18 -130 -84q-13 -27 -44 -50q0 5 -5 5l5 -11
q-54 -57 -54 -117q-16 -51 -16 -84l11 -34q-6 0 -6 -5q22 0 22 -78q-6 -31 -6 -45q28 -71 125 -140q9 0 77 -22q38 5 43 5l49 -5q75 0 130 56q8 0 44 45q16 0 16 10q-5 0 -5 6q10 0 21 118q17 12 17 39v62l5 32l-60 129q0 57 -38 57q0 5 -11 5l6 11h-6q0 -5 -5 -5
q-29 49 -65 49v6l5 12h-5q0 -6 -6 -6q0 8 -32 33h-22l-54 -6v12h-6z" />
    <glyph glyph-name="otilde" unicode="&#xf5;" horiz-adv-x="921" 
d="M346 1252q28 -8 86 -12q85 -38 85 -63q35 -15 58 -37h3q49 0 73 41q29 15 29 79q21 20 25 20h7q34 -18 34 -51v-21q0 -40 -34 -114q-41 -17 -41 -46q-8 0 -15 -4l-25 4q-4 0 -33 -8h-16q-9 0 -58 28h-20l-8 46h-28q-44 -3 -44 1l-8 -4h-9q-16 29 -65 45q-54 -10 -78 -42
q0 -48 -32 -48q-33 0 -33 87v-16q0 19 25 33q29 82 122 82zM441 925q10 -6 16 -6l76 6q88 -28 98 -28l-5 -10l11 5q45 -38 92 -38q16 -21 16 -33q-5 0 -5 -5q18 0 43 -72q60 -29 60 -92q27 -24 27 -66l-5 -33q0 -13 16 -65v-11q-11 -39 -11 -44v-82q-37 -184 -130 -267
q-76 -39 -103 -45l-38 6q-81 -38 -125 -38q-14 0 -49 -22h-6l-130 49q-15 38 -87 55q-39 45 -60 93q-8 0 -65 126v5q0 24 11 43q-18 77 -27 88q30 228 59 241q38 61 60 108q190 132 261 132zM432 834q0 -19 -147 -92q-14 -30 -50 -55q0 5 -5 5l5 -12q-61 -63 -61 -130
q-18 -56 -18 -92l13 -38q-7 0 -7 -6q25 0 25 -86q-7 -34 -7 -50q32 -79 142 -155q10 0 87 -24q43 6 48 6l56 -6q85 0 147 61q9 0 50 50q18 0 18 12q-6 0 -6 6q12 0 24 130q19 14 19 44v69l6 36l-68 142q0 63 -43 63q0 5 -12 5l6 13h-6q0 -6 -6 -6q-33 55 -74 55v6l6 13h-6
q0 -7 -6 -7q0 9 -37 37h-25l-61 -6v12h-7z" />
    <glyph glyph-name="odieresis" unicode="&#xf6;" horiz-adv-x="949" 
d="M229 1244q103 -19 103 -92q0 -55 -70 -109q-10 -6 -22 -6h-49l-33 -5q-38 0 -38 103q0 36 38 60q0 -5 6 -5l-6 10q0 37 71 44zM756 1244h6q103 -35 103 -87q0 -108 -103 -136q-11 6 -17 6l-27 -6q-71 18 -71 71q-5 0 -5 16v6q21 130 114 130zM561 945q145 -45 146 -71
q76 -47 76 -103q65 0 76 -174q0 -20 22 -108l-16 -82q5 -21 5 -43v-6h-11l6 -11q-26 -76 -71 -157q0 -36 -65 -60q-14 -33 -27 -33q0 -5 5 -5q0 -22 -65 -33q-13 -43 -87 -43q-10 -5 -16 -5q0 5 -6 5v-11h-54q-5 0 -43 -11q-118 20 -153 60q-55 28 -130 109q-31 0 -60 152
q0 24 -21 103q10 38 10 65q0 6 -5 17q14 23 27 135q41 61 44 104q23 0 65 81q67 74 130 87q36 22 196 33q0 5 22 5zM191 467v-22q12 -114 38 -146q105 -143 217 -169q0 -5 6 -5q58 27 125 27q0 25 87 60q23 58 60 97h-6q22 35 38 136q-7 88 -32 114v38q-28 147 -77 147
q-70 49 -81 49h-5q-49 -16 -55 -16h-11q-15 0 -76 21q-174 -95 -174 -130q-54 -118 -54 -201z" />
    <glyph glyph-name="divide" unicode="&#xf7;" horiz-adv-x="980" 
d="M477 1118q41 -13 49 -13l9 4q41 0 72 -72q29 0 31 -102q-14 -1 -35 -63h-27q-19 0 -50 -31q-112 0 -112 27q-39 0 -44 116v36q0 60 107 98zM520 321q51 0 114 -88v-14q0 -94 -63 -135q-9 0 -38 -29h-13l-17 13h-21q0 -10 -17 -17q-7 0 -46 47q-46 30 -46 76v24
q0 36 38 59q0 5 -5 5q0 39 114 59zM442 684q19 -9 42 -9h11q10 0 53 9q34 -9 47 -9q16 0 42 9q38 -4 43 -4q46 4 58 4q55 -13 68 -13h43q38 -15 63 -60v-21q-16 -17 -16 -26l-10 4q5 -8 5 -13q-11 -13 -11 -21h-5l-11 4v-4q5 0 5 -4q-34 -14 -78 -14l-64 5q-39 -16 -73 -26
q-22 9 -59 9h-43q-55 12 -174 26q-4 0 -41 -9q-16 0 -96 13q-4 0 -32 -18h-10q-36 9 -111 14q-23 22 -37 69q29 72 111 72q47 3 47 9l27 -5h111q42 0 95 9z" />
    <glyph glyph-name="oslash" unicode="&#xf8;" horiz-adv-x="959" 
d="M693 1255q87 0 87 -77q-19 -97 -33 -97q0 5 -5 5l5 -11q-11 -45 -45 -45q-11 -18 -11 -32v-11q0 -36 60 -87q24 -35 87 -65q43 -71 43 -131q16 -39 22 -125q7 0 16 -32l-5 -66q0 -4 5 -32q-31 -87 -49 -185q-50 -109 -125 -136q0 6 -5 6v-6q5 0 5 -5q-91 -76 -233 -76
q-31 5 -71 21q0 -10 -11 -10l-114 10q-33 0 -23 -32h-11q0 -5 5 -5q-19 -35 -38 -104q-22 -31 -76 -65q-87 0 -87 44v5l22 82q0 55 56 108l16 82q-81 173 -81 277q-6 0 -6 5q8 31 17 44q-11 0 -11 10v66q0 5 -6 5q15 72 49 131q0 44 65 108q42 51 104 93q0 18 38 27
q27 -11 43 -11q6 0 65 32q30 -5 49 -5h16q12 0 38 60q-5 10 -5 16q37 19 77 137q27 71 55 71q0 6 6 6zM436 845q4 -21 10 -21q33 5 33 16v11q0 14 -22 16q-18 -5 -21 -22zM218 541q6 -71 6 -114q0 -32 32 -32q53 39 93 146q17 0 43 87q23 43 38 125q11 0 11 11v16
q0 11 -11 11q-119 -19 -119 -54l-49 -76q-23 -80 -44 -120zM560 699q11 -41 11 -49q0 -9 -65 -54l6 -11v-11q0 -27 -44 -55q-5 -10 -5 -16q0 -38 11 -38q-44 -103 -82 -141q-13 -30 -22 -114q0 -39 76 -44q25 -21 49 -21h38q21 0 71 38h5q0 -6 6 -6q0 9 38 27q4 29 65 60
q82 116 82 190v11q0 24 -11 44q11 19 11 43v6q-12 53 -60 141q5 0 5 5h-5q0 -5 -6 -5q-59 81 -92 81q-82 -26 -82 -81z" />
    <glyph glyph-name="ugrave" unicode="&#xf9;" horiz-adv-x="1100" 
d="M359 1264q60 -14 20 -58q49 -27 49 -54q40 -23 72 -32q16 -32 49 -70q-16 -35 -76 -35q0 9 -49 59q-127 61 -141 62q-92 63 -92 81l11 70q0 47 98 17q49 -27 59 -40zM742 910q147 0 147 -67q0 -30 5 -61q-6 -107 -16 -140q11 -47 11 -83q-11 -51 -11 -56q4 -111 11 -111
q60 -16 60 -23q11 0 11 -28q0 -25 -66 -34l-5 -27q0 -7 5 -17q-10 -30 -10 -61q9 -48 141 -67q38 -33 38 -39v-6l-6 -12h6q0 7 5 7v-67q-5 -18 -32 -18h-11q-62 18 -169 29v10q-39 -6 -59 -27q-15 0 -49 50h-17q-10 0 -87 -39h-5l-38 6q-7 -24 -27 -34h-6q-27 23 -32 23
q-39 -12 -60 -12q-35 12 -43 12q-37 -29 -55 -29q-49 62 -65 62q-27 0 -54 56q-10 0 -44 49l6 23q-6 100 -22 162q9 17 16 179q11 0 11 28q0 29 -16 100q5 38 5 61v6q0 67 -76 67h-22q-23 -17 -43 -17q-65 8 -65 51v5q0 58 70 84l55 -6h81q82 0 109 -62v-5q-6 0 -6 -5
q33 -24 33 -56v-23q-22 -31 -22 -44q0 -17 17 -123q-17 -46 -17 -78q0 -159 27 -251q-16 -4 -16 -45l11 -22q-5 0 -5 -6h5q0 6 5 6q46 -73 55 -73q9 -5 27 -5q7 0 43 39q51 16 109 61q18 11 27 11q0 -5 6 -5v5q-6 0 -6 6q29 0 44 83q51 0 60 78q17 0 38 106l-6 57
q13 75 38 112q-14 44 -60 44q-21 -11 -38 -11q-5 22 -32 22l-22 -11q-65 11 -65 39q5 31 5 44l-11 40v5q0 78 163 78h11zM943 888h22v-17q-6 0 -16 -5l-6 10v12zM639 548h16v-6q-9 -22 -38 -22l-5 11v11z" />
    <glyph glyph-name="uacute" unicode="&#xfa;" horiz-adv-x="1066" 
d="M571 1312h64q40 0 40 -38q4 0 12 -43q-21 -48 -60 -48q0 4 -4 4q-11 -53 -16 -53q-47 -14 -47 -28q0 -25 -56 -38q-9 -29 -48 -43q-14 -29 -35 -29h-4q-8 0 -24 34q0 32 55 110q31 50 44 85q0 12 48 68q0 13 31 19zM769 899q92 -22 92 -70q5 0 5 -5q-10 -22 -10 -64
q0 -6 5 -16l-5 -35q0 -24 5 -46q-5 -38 -5 -75v-45q0 -16 -33 -75q28 -48 33 -115l10 -6q30 6 44 6q0 -2 11 -17v-6q0 -7 -55 -34q-10 0 -16 -126q0 -23 65 -52q0 -12 93 -18q27 -22 27 -97q-6 -11 -6 -17q-110 0 -271 45q-31 47 -65 47l-28 -6q-16 21 -16 40h-22
q-27 -33 -70 -57q0 -25 -125 -40h-16q-48 0 -104 45l-11 -5q-29 0 -81 68q-6 11 -6 24v5q0 31 22 103q0 19 -49 64v17q22 35 22 51q-11 48 -11 64q15 24 22 97q49 0 54 69q0 8 17 18q21 -10 21 -40q-16 -57 -16 -116v-40l-27 -45q16 -52 16 -58v-57q16 -144 54 -144
q40 -63 49 -63l22 -6q29 0 49 57l11 7q15 0 32 -12q14 0 71 69q109 54 109 109q20 69 60 120l10 52q-21 57 -21 75v5q43 49 43 75q0 29 27 52v5q-11 14 -11 23q-5 0 -5 -5q-114 23 -114 40v11q16 21 16 40v6q-41 12 -76 12q-18 -12 -32 -12q-17 0 -22 46q0 46 92 46z
M921 881h16v-17h-16v17zM73 876q51 -12 82 -12l65 12q79 0 87 -127v-40q-2 -17 -71 -63q-3 -40 -16 -40q-11 0 -11 11v29q0 20 -5 52q16 50 16 57q-11 27 -22 29h-38q-80 28 -103 28l-38 -34q-8 0 -16 17q7 81 70 81zM742 232v-10h21q6 10 6 17l-11 5h-6q-10 -1 -10 -12z
" />
    <glyph glyph-name="ucircumflex" unicode="&#xfb;" horiz-adv-x="1099" 
d="M511 1362q81 -24 81 -99q45 -70 45 -115q32 -23 50 -90q-12 -25 -18 -25q0 -28 -63 -28q0 11 -23 12v25l-13 20l4 8q-4 23 -4 34q0 47 -50 78v40q0 7 -23 12q0 -3 -9 -3q-13 -9 -31 -75q-2 -30 -32 -73q0 -5 4 -13q-18 -33 -18 -45q0 -7 -68 -16h-9l-9 4q0 -4 -4 -4
q-32 21 -32 49l9 12q54 57 54 86v26q0 3 5 3q0 34 59 62q24 78 36 78q0 37 31 37h28zM748 912q147 -13 147 -83q16 -43 16 -61v-11q0 -6 -16 -55v-61q0 -18 16 -60l-5 -50l5 -38q-5 -40 -5 -45q5 -37 5 -61q-16 -44 -16 -165v-83q10 -27 49 -27h33l38 5q38 -30 38 -44l11 5
l27 -33v-27l-11 6l5 -12v-6q0 -8 -21 -21q-13 0 -44 16l-27 -16h-16q-33 27 -38 27l-77 -6q-70 0 -157 67h-16q-36 0 -82 -55q-41 0 -71 -17q-9 5 -21 5h-6l-21 -16h-11l-22 16h-65q-120 17 -120 34q6 0 6 5l-11 -5q-87 105 -87 132v17q0 13 16 105q-11 38 -11 66v364
q0 63 -114 72q-29 0 -60 49q24 50 55 50q76 -5 130 -5h76q60 -57 60 -160q5 0 5 -6q-20 -47 -21 -110q11 -50 11 -55q0 -13 -11 -172q5 -49 5 -60q0 -3 -5 -22q31 -188 92 -188q23 0 60 6l32 -6l44 22q0 -6 5 -6v6q-5 0 -5 5q87 70 125 155q71 72 71 122v33l-6 33
q22 72 22 94q0 6 -6 55l17 72q-52 41 -60 60q-70 -21 -82 -21q-28 0 -65 93q0 66 141 66q29 0 49 6z" />
    <glyph glyph-name="udieresis" unicode="&#xfc;" horiz-adv-x="1036" 
d="M283 1263q120 -6 120 -67q21 -19 21 -45v-22q-16 -40 -65 -40h-27q-35 0 -109 -6q-21 34 -21 51q24 124 54 124zM767 1263h11q113 0 135 -106v-6q-9 -32 -27 -45q0 6 -5 6v-6q5 0 5 -5q-10 -26 -103 -46h-16q-26 0 -55 85q24 123 55 123zM142 938q163 -19 163 -45
q-5 0 -5 -6q34 0 38 -152q-6 -39 -6 -44q11 -22 11 -62q0 -18 -11 -84q0 -7 6 -57l-6 -39q6 -54 6 -107v-22q-11 -55 -11 -61v-7q27 -111 87 -111h65q141 47 141 111q69 30 87 97q54 41 54 123q-5 70 -5 84q16 31 16 45l-5 55q16 50 16 74q0 53 -125 78q-54 0 -60 56
q0 36 76 57q82 -34 125 -34q82 0 82 -90q0 -19 -11 -270l5 -28q-10 -21 -10 -62q16 -72 16 -78q0 -24 -16 -72l10 -90q-5 -11 -5 -23q0 -56 120 -84q38 -34 38 -39q0 -39 -76 -39q-104 -12 -109 -12h-11q-53 0 -76 68q0 35 -65 39q-91 -32 -152 -85q-20 11 -44 11h-16
q-23 0 -76 -44h-33q0 6 -32 33q0 26 -66 34q-76 172 -76 264q11 25 11 56q-5 29 -5 34q11 16 16 107q-5 20 -5 22q0 7 16 78q-18 175 -27 198q-9 0 -120 27q-14 0 -43 17v28q0 23 103 51z" />
    <glyph glyph-name="yacute" unicode="&#xfd;" horiz-adv-x="1050" 
d="M622 1407h64q40 0 40 -36q4 0 12 -41q-21 -45 -60 -45q0 4 -4 4q-11 -50 -16 -50q-47 -14 -47 -27q0 -24 -56 -36q-9 -27 -48 -41q-14 -27 -35 -27h-4q-8 0 -24 32q0 30 55 104q31 48 44 81q0 11 48 64q0 12 31 18zM988 954q42 -20 60 -49v-22q-16 0 -16 -11l-11 6h-43
q0 -49 -60 -55q-131 -60 -131 -135q0 -34 -59 -136v-17q0 -12 5 -21q-37 -72 -49 -125q-32 -23 -32 -44q5 -21 5 -38q-35 -130 -54 -130q0 5 -6 5l6 -11q-10 0 -27 -157q-66 -51 -66 -152q-27 -13 -43 -65q-103 -93 -207 -93q-44 22 -130 22h-5q-109 74 -109 114
q-11 35 -11 43q30 115 98 115h5q97 0 131 -109q0 -54 54 -54q81 9 81 76q66 66 66 119q0 8 11 87q0 76 -77 217q-25 100 -59 158q-22 46 -49 147q-7 0 -33 43v44q0 27 -87 114q-24 0 -81 16q-20 -11 -44 -11l-11 17q0 52 93 76q31 0 38 -6q59 6 103 6h82q83 0 108 -38v-38
q0 -19 17 -39l-17 -10h-38l-22 -76l55 -180q0 -29 60 -92h5q98 11 98 43q34 84 60 93l-6 11q0 5 6 16q-6 29 -6 49v11q33 38 33 59l-6 22h-21q-13 0 -22 -5q-29 0 -33 76q-9 0 -11 38v5q28 60 71 60q16 0 38 -5q51 5 98 5h16q12 0 22 5q9 -5 22 -5h54q30 0 81 11z" />
    <glyph glyph-name="ydieresis" unicode="&#xff;" horiz-adv-x="1072" 
d="M326 1289h16q21 -16 76 -22q18 -19 33 -77q11 -3 11 -12v-22q-33 -77 -120 -77q-10 -5 -16 -5q-82 42 -82 72q14 88 49 109q27 34 33 34zM786 1323h81q60 0 60 -127q0 -61 -120 -61q0 -5 -16 -5q-10 0 -43 16q0 14 -6 143q11 34 44 34zM1008 946q42 -20 60 -50v-22
q-16 0 -16 -11l-11 6h-43q0 -50 -60 -56q-131 -61 -131 -137q0 -35 -59 -138v-17q0 -13 5 -22q-37 -73 -49 -127q-32 -23 -32 -44q5 -22 5 -39q-35 -132 -54 -132q0 5 -6 5l6 -11q-10 0 -27 -159q-66 -52 -66 -155q-27 -13 -43 -66q-103 -94 -207 -94q-44 22 -130 22h-5
q-109 75 -109 116q-11 36 -11 44q30 116 98 116h5q97 0 131 -110q0 -55 54 -55q81 9 81 77q66 67 66 121q0 8 11 88q0 77 -77 221q-25 101 -59 160q-22 47 -49 149q-7 0 -33 44v45q0 27 -87 115q-24 0 -81 17q-20 -12 -44 -12l-11 18q0 52 93 77q31 0 38 -6q59 6 103 6h82
q83 0 108 -39v-38q0 -20 17 -40l-17 -10h-38l-22 -77l55 -183q0 -29 60 -93h5q98 11 98 43q34 86 60 95l-6 11q0 5 6 16q-6 30 -6 50v11q33 39 33 60l-6 22h-21q-13 0 -22 -5q-29 0 -33 77q-9 0 -11 39v5q28 61 71 61q16 0 38 -5q51 5 98 5h16q12 0 22 5q9 -5 22 -5h54
q30 0 81 11z" />
    <glyph glyph-name="dagger" unicode="&#x2020;" horiz-adv-x="817" 
d="M466 964q-5 -8 -5 -12q-1 -29 4 -48q3 -15 11 -24l-1 -15q-25 -25 -29 -40q6 -16 26 -57q-1 -71 -41 -130l-1 -25q0 -11 25 -72q-12 -38 -12 -46q10 -20 10 -31q-26 -29 -33 -57q4 -18 7 -35l17 -24v-5q-1 -16 -4 -37q19 -106 18 -132q-12 -35 -12 -38l15 -38
q-1 -9 -95 -85q-43 2 -40 94l-5 54q7 22 7 38q1 9 -9 49q0 8 1 16q-9 6 -19 12v10q1 12 38 52q4 10 9 21q1 18 5 17q0 7 -23 148q0 3 5 20q-4 19 -7 41v6q2 8 11 14q-3 27 -11 61q6 0 6 5q-6 0 -6 5h6l-6 10v11q2 44 8 60q-5 44 -4 77q1 26 5 81q1 22 3 47h-29l-11 -3
q-8 4 -19 4h-10q-13 1 -47 -12q-50 11 -50 15q-17 -9 -31 -8h-4q-41 1 -60 64l6 -1q0 6 -6 7q8 48 27 48l72 -2l9 -5v5l107 -23l36 8q7 29 11 104l-4 11q5 8 5 19v10q1 13 -14 47q13 50 17 50q-10 17 -9 31v4q1 41 72 60l-1 -6q6 0 7 6q54 -8 54 -27l-2 -72l-6 -9h6
l-26 -107l14 -55l-6 -36l9 -16q129 11 149 11q35 -11 38 -11l38 14q9 -1 55 -68q-2 -38 -64 -53l-54 -5q-22 7 -38 7q-9 1 -49 -8q-8 0 -17 1l-11 -17h-10q-12 0 -15 20h-13z" />
    <glyph glyph-name="daggerdbl" unicode="&#x2021;" horiz-adv-x="1142" 
d="M557 1277h5q141 -44 141 -60q6 0 6 5q25 -6 87 -43h5q14 0 44 43q52 22 76 22q43 -31 43 -60v-5q-32 -41 -32 -49q0 -32 -6 -130q27 -82 27 -131q-23 -54 -43 -65h-11q-53 0 -120 185q-53 123 -103 130q-75 35 -125 44q-9 -6 -81 -28l-33 6q-17 0 -43 -54
q-76 -26 -76 -87q-93 -88 -93 -158q0 -21 -22 -119v-71q0 -18 -16 -38v-11q18 -107 33 -136q6 0 27 -76q11 0 38 -76q-5 0 -5 -5h5q0 5 5 5q23 -64 115 -136v6q60 -33 81 -33l27 5q0 -5 6 -5v5q-6 0 -6 6q6 0 16 5q38 -5 60 -5h11q67 0 169 147q5 55 27 114v16
q-12 22 -109 65q-5 10 -5 22q14 71 43 71q21 -11 109 -17q60 6 108 6q73 -17 93 -17q30 6 43 6q22 -24 22 -87v-6l-87 -27q0 6 -5 6v-11h-11q-44 0 -44 -33q0 -30 -5 -60l5 -27l-11 -43l22 -147q0 -109 -70 -109q0 -5 -17 -5h-5q-50 44 -76 60q-27 -6 -104 -49
q-238 -16 -260 -16q-39 31 -93 38q-107 58 -174 168q-14 16 -32 92q-29 44 -38 55q-9 17 -22 179q-5 0 -11 27q11 53 11 60q-5 46 -5 76q11 141 43 201q49 101 65 158q31 23 109 125q19 0 120 59h5l54 -5l11 5q10 -5 22 -5h5q20 0 55 22zM211 -184q67 -27 115 -27
q32 16 45 16l83 -22q32 13 32 22q108 -5 138 -16l32 5l28 -5l142 11q18 -6 37 -6l46 17q60 -28 119 -28q29 11 41 11q21 0 28 -97v-6q0 -34 -46 -54q-20 0 -42 11q-84 0 -128 -33q-23 16 -32 16l-46 -5l-37 22l-114 -33q-37 11 -79 11h-115q-18 0 -50 5l-32 -11
q-12 0 -78 28l-174 -28q-32 0 -51 125q0 47 119 60q0 7 19 11z" />
    <glyph glyph-name="lira" unicode="&#x20a4;" horiz-adv-x="1149" 
d="M670 1310q75 -45 147 -45q6 -12 60 -27q92 -106 92 -160v-6q-13 -122 -60 -122l-38 -6q0 6 -5 6v-11h-16q-68 0 -82 110q16 78 33 106q0 39 -65 39q-6 0 -17 -6q-57 22 -76 22h-43q0 -11 -114 -34q0 7 -6 7v-7q6 0 6 -5q-36 -16 -71 -132q-5 -107 -5 -139q0 -48 163 -61
q22 0 59 5q126 0 158 -50q21 -16 27 -16v-11q-6 0 -16 -5q-7 0 -55 5q-92 -22 -206 -22h-11q-5 0 -5 -6q-10 6 -55 12q-21 -6 -21 -34q19 -78 65 -78h32q30 0 76 7q50 -32 180 -45q0 -12 16 -12v-16q-14 -50 -92 -50q-63 11 -87 11q-109 -12 -109 -55q-9 0 -11 -38v-12
q11 -97 27 -138q-5 0 -5 -5h5q0 5 6 5q0 -6 60 -50l-6 -11l11 6q45 -22 92 -61q28 -17 44 -17q27 0 81 44q55 0 66 55q34 0 76 116q0 28 32 45q87 -10 87 -72q-18 -109 -32 -149q0 -19 -55 -67q-54 -83 -141 -83q0 -6 -33 -16l-10 5h-11q-38 0 -120 5l6 11q-11 -5 -17 -5
q-103 68 -157 128h-28q-38 0 -97 -105q-73 -39 -104 -39h-81q-24 0 -98 71q-49 48 -49 161q13 25 27 117q3 0 28 22q0 -6 5 -6v6q-5 0 -5 5q26 31 103 72q60 0 130 -44h27l6 38q0 61 -38 61q-35 -11 -44 -11l-27 6q-21 -6 -43 -6h-6q-9 0 -32 39l5 27v23q11 0 11 11h5
q44 0 104 -5q31 0 38 83q-18 44 -44 44q-11 0 -60 -6q-48 12 -48 50v11q16 39 65 39h16q38 74 38 100v44q0 12 -5 22q0 24 38 94q14 43 54 66q18 77 38 79q0 5 5 5h49q74 33 152 61h11zM165 291v-16q0 -21 22 -50q-6 0 -6 -6h6q0 6 5 6q11 -19 11 -28q-5 0 -5 -6h5q0 6 6 6
q0 -25 54 -39q63 14 109 78v27q0 79 -82 100h-27q-56 0 -98 -72z" />
    </font>
</defs>
</svg>
